Достать ножи: Стеклянная луковица

MVO

Добыча

Дубляж

Уэнсдэй

1 сезон

Тор

Дубляж

13 клиническая

1 сезон

Жестокая ночь

MVO

Одни из нас

1 сезон

Deluxe

pack

Рекомендуем

30

Пиратка

ВАЖНО

ВАЖНО

Ghostwire

Пиратка

jed

RePack

nioh2

RePack

RDR2

RePack

NEED FOR SPEED™ PAYBACK

RePack

скачать торрент

Кинопоиск HD

Острые козырьки 6 сезон

6 сезон

FAR CRY 6

RePack

скачать торрент

Лицензия

скачать торрент

MVO

1

1 сезон

скачать торрент

1 сезон

скачать торрент

Лицензия

  

Тропы / Tracks (Джон Кёрран) [2013 г., драма, приключения, биография, BDRip, Авторский одноголосый "Ю.Сербин"]

Тропы через торрент pb.wtf

Размер: 2.18 GB | Добавлен: 8 лет 4 мес. назад | Торрент скачан:50 раз
Смотреть онлайн | Скачать | Поддержите нас   

02-09-2014 17:24 Тропы Скачать торрент  

Тропы / Tracks
Год выпуска: 2013
Страна: Австралия / See-Saw Films
Жанр: драма, приключения, биография
Продолжительность: 01:52:32
Перевод: Авторский одноголосый (Ю.Сербин)

Режиссер: Джон Кёрран

В ролях: Миа Васиковска. Адам Драйвер, Эмма Бут, Джессика Тоуви, Мелани Занетти, Райнер Бок, Роберт Колеби, Лили Перл, Кэрол Барнс, Брайан Пробетс

Описание: Юная Робин решает в одиночку пересечь Австралию. В пути ее сопровождают лишь собака и четыре верблюда. Журнал «National Geographic», заинтересовавшись ее проектом, предлагает девушке писать путевые заметки и дает в сопровождение фотографа.

Качество: BDRip (Рип с BD-Remux 1080p)
Формат: AVI
Видео кодек: XviD
Аудио кодек: AC3
Видео: MPEG4, XviD, 720x304 (2.35:1), 24.000 fps, 2 312 Kbps (0.440 bit/pixel)
Аудио: AC-3, 48.0 KHz, 6 ch, 448 Kbps, CBR


Общее
Полное имя : G:\кино\Тропы.2013.BDRip.avi
Формат : AVI
Формат/Информация : Audio Video Interleave
Профиль формата : OpenDML
Размер файла : 2,18 Гбайт
Продолжительность : 1 ч. 52 м.
Общий поток : 2772 Кбит/сек
Программа кодирования : VirtualDubMod 1.5.10.3 | www.virtualdub-fr.org || (build 2550/release)
Библиотека кодирования : VirtualDubMod build 2550/release

Видео
Идентификатор : 0
Формат : MPEG-4 Visual
Профиль формата : Advanced [email protected]
Параметр BVOP формата : 2
Параметр QPel формата : Нет
Параметр GMC формата : Без точки перехода
Параметр матрицы формата : Default (H.263)
Идентификатор кодека : XVID
Идентификатор кодека/Подсказка : XviD
Продолжительность : 1 ч. 52 м.
Битрейт : 2312 Кбит/сек
Ширина : 720 пикселей
Высота : 304 пикселя
Соотношение сторон : 2,35:1
Частота кадров : 24,000 кадра/сек
Цветовое пространство : YUV
Субдискретизация насыщенности : 4:2:0
Битовая глубина : 8 бит
Тип развёртки : Прогрессивная
Метод сжатия : С потерями
Бит/(Пиксели*Кадры) : 0.440
Размер потока : 1,82 Гбайт (83%)
Библиотека кодирования : XviD 1.2.1 (UTC 2008-12-04)

Аудио
Идентификатор : 1
Формат : AC-3
Формат/Информация : Audio Coding 3
Расширение режима : CM (complete main)
Параметр Endianness формата : Big
Идентификатор кодека : 2000
Продолжительность : 1 ч. 52 м.
Вид битрейта : Постоянный
Битрейт : 448 Кбит/сек
Каналы : 6 каналов
Расположение каналов : Front: L C R, Side: L R, LFE
Частота : 48,0 КГц
Битовая глубина : 16 бит
Метод сжатия : С потерями
Размер потока : 361 Мбайт (16%)
Выравнивание : Разделение по промежуткам
Продолжительность промежутка : 42 мс. (1,00 видеокадр)
Время предзагрузки промежутка : 500 мс.




Скачать Тропы через торрент http://i64.fastpic.ru/big/2014/0903/d5/4b40cec931bb871a1c10e291e94847d5.jpg Скачать, смотреть онлайн Тропы бесплантно в хорошем качестве Описание: Юная Робин решает в одиночку пересечь Австралию. В пути ее сопровождают лишь собака и четыре верблюда. Журнал «National ... 10 10 4
Торрент: Зарегистрирован [2014-09-02 17:24] · скачан: 50 раз
Статус: √ проверено
Размер: 2.18 GB
Как cкачать? Как скачать Тропы через торрент | UTorrent

% Раздел Тема Автор DL S | L
Фильмы [HD 720p, 1080p] (Хороший звук DUB, MVO) [ 6.2 GB ] Тропы / Tracks | Лицензия | 720p Messa-fan Скачать
1 | 0
Фильмы (Blu-ray, BD-Remux, HDDVD) [ 30.68 GB ] Тропы / Tracks | Лицензия | Лицензия _KaisiK_ Скачать
1 | 0
Фильмы (DVD фильмы) [ 5.67 GB ] Тропы / Tracks | | 2013, драма, приключения, биография, DVD9 voovaz Скачать
1 | 0
Фильмы 2013 [DVDrip, WEB-DLRip, HDrip] [ 1.46 GB ] Тропы / Tracks | Лицензия | HDRip, MVO [Лицензия Ворон Скачать
1 | 1

28-11-2019 20:33  


Отключить вcю реклaмy на сайте, в т.ч. и в плеере онлайн просмотра!

    Дорогой пользователь! Огромная просьба, поблагодарите релизера, оцените раздачу и оставьте свои комментарий, если Вы скачали Тропы через торрент бесплатно!!
    Комментировать посты могут только пользователи прошедшие не сложную регистрацию
    Показать сообщения:    


    Тропы через торрент
    Скачать бесплатно Тропы
    Тропы скачать торрент
    Тропы смотреть онлайн
    Cкачать фильм Тропы бесплатно
    Тропы скачать торрент в хорошем качестве
    Тропы смотреть онлайн бесплатно в хорошем качестве
    Вы не можете начинать темы
    Вы не можете отвечать на сообщения
    Вы не можете редактировать свои сообщения
    Вы не можете удалять свои сообщения
    Вы не можете голосовать в опросах
    Вы не можете прикреплять файлы к сообщениям
    Вы можете скачивать файлы
    Тропы / Tracks [2013 г., драма, приключения, биография, BDRip, Авторский одноголосый "Ю.Сербин"] смотреть онлайн, скачать торрент picoco.icu