Ссылка на приватное зеркало нашего сайта всего за 1$. Внимание количество ограничено!!!

2 сезон

iTunes

1 сезон

1

2 сезон

2 сезон

iTunes

1 сезон

RePack

30

Ultimate

ВАЖНО

ИГРА 18+

pack

RePack

MK11
pack

Забери бонус

RePack

jed

!!Акция!!

Alien_Rage

RePack

fifa19

RePack

Assassins Creed: Odyssey

RePack

NEED FOR SPEED™ PAYBACK

4 сезон

9 сезон

Бесстыжие 9 сезон

Все сериалы

все сериалы на PB.wtf

RePack

FAR CRY 5
  

16 кварталов / 16 Blocks (Ричард Доннер) [2006 г., Боевик, Триллер, Драма, Криминал, BD-Remux, Дубляж, Лицензия] pb.wtf

16 кварталов через торрент pb.wtf

Размер: 19.5 GB | Добавлен: 6 лет 3 мес. назад | Торрент скачан:10 раз
Скачать  

03-09-2014 00:50 16 кварталов Скачать торрент  

16 кварталов / 16 Blocks Год выпуска: 2006
Страна: Германия, США
Жанр: Боевик, Триллер, Драма, Криминал
Продолжительность: 01:37:26
Перевод: Дубляж, Лицензия (Двухголосый, Авторский x2)
Субтитры: Русский, Английский

Режиссер: Ричард Доннер

Бюджет: $52 000 000
Премьера в мире: 1 марта 2006




В ролях: Брюс Уиллис, Мос Деф, Дэвид Морс, Дженна Штерн, Кейси Сэндер, Силк Козарт, Дэвид Зайас, Роберт Раски, Патрик Гэрроу, Саша Ройз

Описание: 16 кварталов — это расстояние от полицейского участка до здания суда в одном из районов Нью-Йорка. 16 кварталов должны преодолеть полицейский и свидетель, которому предстоит давать показания в суде.
Полицейский Джек Мосли — белый, немолодой, усталый, молчаливый, почти спившийся, почти продажный, но все-таки еще сохранивший в себе и остатки самоуважения, и остатки профессионального кодекса чести. Свидетель Эдди Банкер — полная противоположность Джека: чернокожий шустрый болтун, который и сам не рад той передряге, что устроила ему судьба.
Джек и Эдди должны пройти и проехать всего 16 городских кварталов, но каким долгим, каким опасным, каким смертоносным окажется этот путь!..


Качество: BD-Remux
Формат: MKV
Видео кодек: MPEG4
Аудио кодек: DTS, DTS-HD Master Audio
Видео: MPEG-4 AVC, 19958 Кбит/с, 1920x1080, 25,000 кадров/сек
Аудио#1: Русский DTS, 5.1, 48 kHz, 755 kbps, 24 bits |Dub|
Аудио#2: Русский DTS-HD Master Audio, 5.1, 48 kHz, 2014 kbps, 24 bits (DTS Core: 5.1, 48 kHz, 1509 kbps, 16 bits ) |Профессиональный двухголосый|
Аудио#3: Русский DTS-HD Master Audio, 5.1, 48 kHz, 3175 kbps, 24 bits (DTS Core: 5.1, 48 kHz, 1509 kbps, 16 bits ) |Гаврилов|
Аудио#4: Русский DTS, 5.1, 48 kHz, 755 kbps, 24 bits |Немахов|
Аудио#5: Английский DTS-HD Master Audio, 5.1, 48 kHz, 1991 kbps, 24 bits (DTS Core: 5.1, 48 kHz, 1509 kbps, 16 bits ) |Original|





Формат : Matroska
Версия формата : Version 4 / Version 2
Размер файла : 19,5 Гбайт
Продолжительность : 1 ч. 37 м.
Режим общего битрейта : Переменный
Общий поток : 28,6 Мбит/сек
Название фильма : 16 Blocks 2006 - NovaLan
Дата кодирования : UTC 2014-08-30 01:31:51
Программа кодирования : mkvmerge v7.1.0 ('Good Love') 64bit built on Jul 27 2014 13:06:55
Библиотека кодирования : libebml v1.3.0 + libmatroska v1.4.1
DURATION : 01:37:31.968000000
NUMBER_OF_FRAMES : 548622
NUMBER_OF_BYTES : 551913732
_STATISTICS_WRITING_APP : mkvmerge v7.1.0 ('Good Love') 64bit built on Jul 27 2014 13:06:55
_STATISTICS_WRITING_DATE_UTC : 2014-08-30 01:31:51
_STATISTICS_TAGS : BPS DURATION NUMBER_OF_FRAMES NUMBER_OF_BYTES

Видео
Идентификатор : 1
Формат : AVC
Формат/Информация : Advanced Video Codec
Профиль формата : High@L4.1
Параметр CABAC формата : Да
Параметр ReFrames формата : 4 кадра
Параметр GOP формата : M=3, N=15
Идентификатор кодека : V_MPEG4/ISO/AVC
Продолжительность : 1 ч. 37 м.
Вид битрейта : Переменный
Максимальный битрейт : 24,0 Мбит/сек
Ширина : 1920 пикселей
Высота : 1080 пикселей
Соотношение сторон : 16:9
Режим частоты кадров : Постоянный
Частота кадров : 25,000 кадров/сек
Стандарт вещания : PAL
Цветовое пространство : YUV
Субдискретизация насыщенности : 4:2:0
Битовая глубина : 8 бит
Тип развёртки : MBAFF
Заголовок : 16 Blocks 2006 - NovaLan
Default : Да
Forced : Нет
Основные цвета : BT.709
Характеристики трансфера : BT.709
Коэффициенты матрицы : BT.709

Аудио #1
Идентификатор : 2
Формат : DTS
Формат/Информация : Digital Theater Systems
Режим : 16
Параметр Endianness формата : Big
Идентификатор кодека : A_DTS
Продолжительность : 1 ч. 37 м.
Вид битрейта : Постоянный
Битрейт : 755 Кбит/сек
Каналы : 6 каналов
Расположение каналов : Front: L C R, Side: L R, LFE
Частота : 48,0 КГц
Битовая глубина : 24 бит
Метод сжатия : С потерями
Размер потока : 527 Мбайт (3%)
Язык : Russian
Default : Да
Forced : Нет

Аудио #2
Идентификатор : 3
Формат : DTS
Формат/Информация : Digital Theater Systems
Профиль формата : MA / Core
Режим : 16
Параметр Endianness формата : Big
Идентификатор кодека : A_DTS
Продолжительность : 1 ч. 37 м.
Вид битрейта : Переменный
Битрейт : Неизвестно / 1509 Кбит/сек
Каналы : 6 каналов
Расположение каналов : Front: L C R, Side: L R, LFE
Частота : 48,0 КГц
Битовая глубина : 16 бит
Метод сжатия : Без потерь / Lossy
Язык : Russian
Default : Нет
Forced : Нет

Аудио #3
Идентификатор : 4
Формат : DTS
Формат/Информация : Digital Theater Systems
Профиль формата : MA / Core
Режим : 16
Параметр Endianness формата : Big
Идентификатор кодека : A_DTS
Продолжительность : 1 ч. 37 м.
Вид битрейта : Переменный
Битрейт : Неизвестно / 1509 Кбит/сек
Каналы : 6 каналов
Расположение каналов : Front: L C R, Side: L R, LFE
Частота : 48,0 КГц
Битовая глубина : 24 бит
Метод сжатия : Без потерь / Lossy
Язык : Russian
Default : Нет
Forced : Нет

Аудио #4
Идентификатор : 5
Формат : DTS
Формат/Информация : Digital Theater Systems
Режим : 16
Параметр Endianness формата : Big
Идентификатор кодека : A_DTS
Продолжительность : 1 ч. 37 м.
Вид битрейта : Постоянный
Битрейт : 755 Кбит/сек
Каналы : 6 каналов
Расположение каналов : Front: L C R, Side: L R, LFE
Частота : 48,0 КГц
Битовая глубина : 24 бит
Метод сжатия : С потерями
Размер потока : 527 Мбайт (3%)
Язык : Russian
Default : Нет
Forced : Нет

Аудио #5
Идентификатор : 6
Формат : DTS
Формат/Информация : Digital Theater Systems
Профиль формата : MA / Core
Режим : 16
Параметр Endianness формата : Big
Идентификатор кодека : A_DTS
Продолжительность : 1 ч. 37 м.
Вид битрейта : Переменный
Битрейт : Неизвестно / 1509 Кбит/сек
Каналы : 6 каналов
Расположение каналов : Front: L C R, Side: L R, LFE
Частота : 48,0 КГц
Битовая глубина : 16 бит
Метод сжатия : Без потерь / Lossy
Язык : English
Default : Нет
Forced : Нет

Текст #1
Идентификатор : 7
Формат : UTF-8
Идентификатор кодека : S_TEXT/UTF8
Идентификатор кодека/Информация : UTF-8 Plain Text
Язык : Russian
Default : Нет
Forced : Нет

Текст #2
Идентификатор : 8
Формат : UTF-8
Идентификатор кодека : S_TEXT/UTF8
Идентификатор кодека/Информация : UTF-8 Plain Text
Язык : English
Default : Нет
Forced : Нет

Меню
00:00:00.000 : en:Chapter 1
00:09:35.760 : en:Chapter 2
00:14:47.840 : en:Chapter 3
00:25:18.600 : en:Chapter 4
00:29:49.640 : en:Chapter 5
00:38:05.760 : en:Chapter 6
00:45:16.160 : en:Chapter 7
00:54:42.840 : en:Chapter 8
00:59:21.760 : en:Chapter 9
01:10:54.760 : en:Chapter 10
01:15:31.400 : en:Chapter 11
01:25:06.840 : en:Chapter 12
01:30:33.800 : en:Chapter 13

pb.wtf



Скачать 16 кварталов через торрент http://i66.fastpic.ru/big/2014/0903/2b/1220dccee2567cbad968f088b225aa2b.jpg Скачать фильм 16 кварталов через торрент бесплантно в хорошем качестве Описание: 16 кварталов — это расстояние от полицейского участка до здания суда в одном из районов Нью-Йорка. 16 кварталов должны ... 10 10 3
Info! Золотая раздача, скачанное не засчитывается.
Торрент: Зарегистрирован [2014-09-03 00:50] · скачан: 10 раз
Статус: √ проверено
Размер: 19.5 GB
Как cкачать? Как скачать 16 кварталов через торрент | qTorrent

% Раздел Тема Автор DL S | L
Фильмы 2006-2008 [ 1.99 GB ] 16 кварталов / 16 Blocks [2006 HDRip-AVC DUB + Оригинал] lev1244v Скачать
1 | 0
Фильмы 2006-2008 [ 1.48 GB ] 16 кварталов / 16 Blocks [2006 DVDRip лицензия] Sудья Скачать
1 | 0
Фильмы 2006-2008 [ 1.86 GB ] 16 кварталов / 16 Blocks [2006 ... DVDRip лицензия] kuvagen Скачать
1 | 0

28-11-2019 20:33  

Отключить всю рекламу на сайте

    Дорогой пользователь! Огромная просьба, поблагодарите релизера, оцените раздачу и оставьте свои комментарий, если Вы скачали 16 кварталов через торрент бесплатно! Внесите свою лепту в развитие PiratBit!
    Комментировать посты могут только пользователи прошедшие не сложную регистрацию
    Показать сообщения:    

    16 кварталов через торрент
    Скачать бесплатно 16 кварталов
    16 кварталов скачать торрент
    16 кварталов смотреть онлайн
    Cкачать фильм 16 кварталов бесплатно
    16 кварталов скачать торрент в хорошем качестве
    16 кварталов смотреть онлайн бесплатно в хорошем качестве


    Вы не можете начинать темы
    Вы не можете отвечать на сообщения
    Вы не можете редактировать свои сообщения
    Вы не можете удалять свои сообщения
    Вы не можете голосовать в опросах
    Вы не можете прикреплять файлы к сообщениям
    Вы можете скачивать файлы