2 сезон

iTunes

MVO

1

2 сезон

iTunes

iTunes

1 сезон

RePack

30

Новинка

ВАЖНО

ИГРА 18+

pack

RePack

MK11
pack

Легкие деньги

RePack

jed

RePack

fifa19

RePack

RDR2

RePack

NEED FOR SPEED™ PAYBACK

4 сезон

9 сезон

Бесстыжие 9 сезон

Все сериалы

все сериалы на PB.wtf

RePack

FAR CRY 5

Anonymous, добрый день, мы не успеваем собрать деньги на оплату серверов за декабрь и январь, помогите нам пожалуйста в это трудное время. В качестве благодарности мы отключим Вам всю рекламу на сайте (укажите свой ник в строку Ваше имя)!

×
  
Magnet ссылка

Анжелика, маркиза ангелов / Angélique, marquise des anges (Ариэль Зейтун / Ariel Zeitoun) [2013, Франция, мелодрама, приключения, DVDRip,Профессиональный [Дубляж - Лицензия] pb.wtf

Анжелика, маркиза ангелов через торрент pb.wtf

Размер: 1.46 GB | Добавлен: 6 лет 10 мес. назад | Торрент скачан:2454 раза
Скачать  

26-02-2014 00:21 Анжелика, маркиза ангелов Скачать торрент  


Анжелика, маркиза ангелов / Angélique, marquise des anges

«Evil wears many faces»

  • Год выпуска:2013
  • Страна:Франция
  • Жанр: мелодрама, приключения
  • Продолжительность: 01:48:06
  • Перевод: Профессиональный [Дубляж - Лицензия]

  • Субтитры: Нет
  • Режиссер:Ариэль Зейтун / Ariel Zeitoun
  • В ролях: Нора Арнезедер (Angélique de Sancé de Monteloup), Жерар Ланвен (Le comte Joffrey de Peyrac), Томер Сисле (Philippe de Plessis-Bellière), Симон Абкарян (L'avocat François Desgrez), Давид Кросс (Louis XIV), Мэтью Бужена (Le marquis d'Andijos), Мигель Херц-Кестранек (Le marquis de de Plessis Bellière), Юлиан Вайгенд (Fouquet), Райнер Фриб (Mazarin), Флоренс Косте (Margot), Мишель Карлиз (Chevalier de Germontaz), Матьё Кассовиц (Nicolas /Calembredaine)
    • Описание:
      Франция XVII века. Юную красавицу Анжелику выдают замуж за графа де Пейрака, обладающего огромным состоянием и слывущего «колдуном». Поначалу Анжелика ненавидит мужа, но постепенно начинает понимать, что за суровой внешностью скрывается обаятельным, добрый, чуткий и справедливый мужчина. Между супругами вспыхивает настоящая любовь, но идиллия оказывается недолгой.
      Короля Людовика XIV, проездом посетившего замок Де Пейрака, начинает терзать зависть к семейному счастью и богатству своего подданного. Де Пейрак заточен в Бастилию и ждет казни. Но Анжелика готова биться за свою любовь до последнего вздоха. Но помощь энергичной и независимой красавице приходит давно влюбленный в нее Николя - предводитель парижских разбойников.

    Бюджет:€15 750 000 / Мировая премьера:18 декабря 2013
    • Качество:DVDRip
    • Формат:AVI
    • Видео кодек: XviD
    • Аудио кодек:AC3
    • Видео: 720x320 (2.25:1), 1475 kbps, 25 fps
    • Аудио: AC3 / 5.1 / 48 kHz / 448 kbps / 16 bit


    Код:

    General
    Complete name                            : D:ТорентыAnjelika.Markiza.Djavolov.2013.D.1400MB.avi
    Format                                   : AVI
    Format/Info                              : Audio Video Interleave
    File size                                : 1.46 GiB
    Duration                                 : 1h 48mn
    Overall bit rate                         : 1 934 Kbps
    Writing application                      : VirtualDubMod 1.5.10.3 | www.virtualdub-fr.org || (build 2550/release)
    Writing library                          : VirtualDubMod build 2550/release

    Video
    ID                                       : 0
    Format                                   : MPEG-4 Visual
    Format profile                           : Advanced Simple@L5
    Format settings, BVOP                    : 2
    Format settings, QPel                    : No
    Format settings, GMC                     : No warppoints
    Format settings, Matrix                  : Default (MPEG)
    Codec ID                                 : XVID
    Codec ID/Hint                            : XviD
    Duration                                 : 1h 48mn
    Bit rate                                 : 1 476 Kbps
    Width                                    : 720 pixels
    Height                                   : 320 pixels
    Display aspect ratio                     : 2.25:1
    Frame rate                               : 25.000 fps
    Color space                              : YUV
    Chroma subsampling                       : 4:2:0
    Bit depth                                : 8 bits
    Scan type                                : Progressive
    Compression mode                         : Lossy
    Bits/(Pixel*Frame)                       : 0.256
    Stream size                              : 1.11 GiB (76%)
    Writing library                          : XviD 73

    Audio
    ID                                       : 1
    Format                                   : AC-3
    Format/Info                              : Audio Coding 3
    Mode extension                           : CM (complete main)
    Codec ID                                 : 2000
    Duration                                 : 1h 48mn
    Bit rate mode                            : Constant
    Bit rate                                 : 448 Kbps
    Channel(s)                               : 6 channels
    Channel positions                        : Front: L C R, Side: L R, LFE
    Sampling rate                            : 48.0 KHz
    Bit depth                                : 16 bits
    Compression mode                         : Lossy
    Stream size                              : 346 MiB (23%)
    Alignment                                : Split accross interleaves
    Interleave, duration                     : 40 ms (1.00 video frame)
    Interleave, preload duration             : 500 ms

    Скриншоты:

    Трейлеры к фильмам [2014]
    © Оформление by Raven pb.wtf



  • Скачать Анжелика, маркиза ангелов через торрент http://pic.kartinco.top/images/6/ordi9.jpg Скачать фильм Анжелика, маркиза ангелов через торрент бесплантно в хорошем качестве Описание:Франция XVII века. Юную красавицу Анжелику выдают замуж за графа де Пейрака, обладающего огромным состоянием и слывущего ... 9.8 10 61
    Info! Золотая раздача, скачанное не засчитывается.
    Торрент: Зарегистрирован [2014-02-26 00:21] · скачан: 2 454 раз
    Статус: √ проверено
    Размер: 1.46 GB
    Как cкачать? Как скачать Анжелика, маркиза ангелов через торрент | UTorrent

    % Раздел Тема Автор DL S | L
    Фильмы 2013 [DVDrip, WEB-DLRip, HDrip] [ 2.18 GB ] Анжелика маркиза ангелов / Angélique marquise des anges [2013 HDRip ""] coc900 Скачать
    1 | 0
    Фильмы (DVD фильмы) [ 6.46 GB ] Анжелика маркиза ангелов / Angélique marquise des anges [2013 DVD9] R5 voovaz Скачать
    1 | 0

    28-11-2019 20:33  

    Отключить всю рекламу на сайте


    26-02-2014 07:27 Анжелика, маркиза ангелов Скачать торрент  

    :film: pb.wtf



    28-02-2014 15:08 Анжелика, маркиза ангелов Скачать торрент  

    Хороший фильм, мне понравился))pb.wtf



    05-03-2014 04:21 Анжелика, маркиза ангелов Скачать торрент  

    Отличный фильм!А продолжение когда?pb.wtf



    27-03-2014 18:47 Анжелика, маркиза ангелов Скачать торрент  

    когда в качестве?pb.wtf



    29-08-2014 11:08 Анжелика, маркиза ангелов Скачать торрент  

    Отличный, ждем продолжения.pb.wtf



    27-10-2018 18:04 Анжелика, маркиза ангелов Скачать торрент  

    говно полное, пересняли, поменяли сценарий....
    лучше старого фильма никогда не снимут. фильм был на промотке после половины
    не советую тратить на это времяpb.wtf



      Дорогой пользователь! Огромная просьба, поблагодарите релизера, оцените раздачу и оставьте свои комментарий, если Вы скачали Анжелика, маркиза ангелов через торрент бесплатно! Внесите свою лепту в развитие PiratBit!
      Комментировать посты могут только пользователи прошедшие не сложную регистрацию
      Показать сообщения:    

      Анжелика, маркиза ангелов через торрент
      Скачать бесплатно Анжелика, маркиза ангелов
      Анжелика, маркиза ангелов скачать торрент
      Анжелика, маркиза ангелов смотреть онлайн
      Cкачать фильм Анжелика, маркиза ангелов бесплатно
      Анжелика, маркиза ангелов скачать торрент в хорошем качестве
      Анжелика, маркиза ангелов смотреть онлайн бесплатно в хорошем качестве


      Вы не можете начинать темы
      Вы не можете отвечать на сообщения
      Вы не можете редактировать свои сообщения
      Вы не можете удалять свои сообщения
      Вы не можете голосовать в опросах
      Вы не можете прикреплять файлы к сообщениям
      Вы можете скачивать файлы