1 сезон

1 сезон

iTunes

1

КиноПоиск HD

Кинопоиск HD

iTunes

13

1 сезон

RePack

30

Ultimate

ВАЖНО

ИГРА 18+

pack

RePack

MK11
pack

Легкие деньги

RePack

jed

RePack

fifa19

RePack

RDR2

RePack

NEED FOR SPEED™ PAYBACK

4 сезон

9 сезон

Бесстыжие 9 сезон

Все сериалы

все сериалы на PB.wtf

RePack

FAR CRY 5
  
Magnet ссылка

Венецианский купец / The Merchant of Venice (Майкл Рэдфорд) [2004, драма, мелодрама, HDRip] MVO pb.wtf

Венецианский купец через торрент pb.wtf

Раздают: 1 [ 0 KB/s ]
Размер: 1.46 GB | Добавлен: 6 лет 7 мес. назад | Торрент скачан:118 раз
Скачать  

03-09-2014 14:47 Венецианский купец Скачать торрент  

Венецианский купец / The Merchant of Venice


Год выпуска: 2004
Страна: Великобритания , Люксембург , Италия
Жанр: драма, мелодрама
Продолжительность: 02:11:43
Перевод: Профессиональный (многоголосый закадровый)

Режиссер: Майкл Рэдфорд
Сценарий: Майкл Рэдфорд, Уильям Шекспир
Продюсер: Кэри Брокау, Барри Навиди, Джейсон Питти
Оператор: Бенуа Деломм
Композитор : Жослин Пук
Художник: Бруно Рубео, Джон Бункер, Тамара Марини
Монтаж: Люсия Зуччетти

В ролях: Аль Пачино / Al Pacino (Shylock), Джереми Айронс / Jeremy Irons (Antonio), Джозеф Файнс / Joseph Fiennes (Bassanio), Линн Коллинс / Lynn Collins (Portia), Зулейха Робинсон / Zuleikha Robinson (Jessica), Крис Маршалл / Kris Marshall (Gratiano), Чарли Кокс / Charlie Cox (Lorenzo), Хезер Голденхерш / Heather Goldenhersh (Nerissa)


Описание: Действие фильма происходит в Венеции, жители которой жизнерадостные, беспечные, щедрые люди. Они недолюбливают и высмеивают иноверца Шейлока — угрюмого, алчного ростовщика, считающего каждую копейку. Шейлок отвечает им лютой ненавистью.Конфликт обостряется до того, что кровопролитие кажется неминуемым. Но тут вмешивается созидающая сила женской любви, которая смело противостоит мужским амбициям и побеждает!

Бюджет: $30 000 000
Сборы в США: $3 765 585
Сборы в мире: $20 158 162
Сборы в России: $27 500
Зрители: Италия 698 тыс. , США 571.3 тыс. , Испания 516.6 тыс.
Премьера (мир): 3 сентября 2004
Премьера (РФ): 17 марта 2005, «Парадиз»
Релиз на DVD: 19 февраля 2009, «Парадиз Медиа»
Рейтинг MPAA: Лицам до 17 лет обязательно присутствие взрослого


Качество: HDRip
Формат: AVI
Видео кодек: XviD
Аудио кодек: AC3
Видео: 720x304 (2.35:1), 23.976 fps, XviD, 1 382 Kbps
Аудио: Аудио #1: AC3, 192 Kbps, 48.0 KHz, 2 ch
· «Венецианский купец» — экранизация одноименной пьесы У. Шекспира.

· Изначально роль Антонио должен был сыграть Йен МакКеллен, а роль Шейлока — Дастин Хоффман.

Код:

General
Complete name                    : The.Merchant.of.Venice.avi
Format                           : AVI
Format/Info                      : Audio Video Interleave
File size                        : 1.46 GiB
Duration                         : 2h 11mn
Overall bit rate                 : 1 583 Kbps
Writing application              : VirtualDubMod 1.5.10.2 (build 2540/release)
Writing library                  : VirtualDubMod build 2540/release

Video
ID                               : 0
Format                           : MPEG-4 Visual
Format profile                   : Advanced Simple@L5
Format settings, BVOP            : Yes
Format settings, QPel            : No
Format settings, GMC             : No warppoints
Format settings, Matrix          : Custom
Codec ID                         : XVID
Codec ID/Hint                    : XviD
Duration                         : 2h 11mn
Bit rate                         : 1 382 Kbps
Width                            : 720 pixels
Height                           : 304 pixels
Display aspect ratio             : 2.35:1
Frame rate                       : 23.976 fps
Color space                      : YUV
Chroma subsampling               : 4:2:0
Bit depth                        : 8 bits
Scan type                        : Progressive
Bits/(Pixel*Frame)               : 0.263
Stream size                      : 1.27 GiB (87%)
Writing library                  : XviD 1.2.1 (UTC 2008-12-04)

Audio
ID                               : 1
Format                           : AC-3
Format/Info                      : Audio Coding 3
Mode extension                   : CM (complete main)
Codec ID                         : 2000
Duration                         : 2h 11mn
Bit rate mode                    : Constant
Bit rate                         : 192 Kbps
Channel(s)                       : 2 channels
Channel positions                : Front: L R
Sampling rate                    : 48.0 KHz
Bit depth                        : 16 bits
Stream size                      : 181 MiB (12%)
Alignment                        : Split accross interleaves
Interleave, duration             : 42 ms (1.00 video frame)
Interleave, preload duration     : 500 ms

pb.wtf



Скачать Венецианский купец через торрент http://i64.fastpic.ru/big/2014/0903/f4/e9422c21b449bb9c26270995272daaf4.jpg Скачать фильм Венецианский купец через торрент бесплантно в хорошем качестве Описание: Действие фильма происходит в Венеции, жители которой жизнерадостные, беспечные, щедрые люди. Они недолюбливают и высмеивают ... 9.7 10 3
Торрент: Зарегистрирован [2014-09-03 14:47] · скачан: 118 раз
Статус: √ проверено
Размер: 1.46 GB
Как cкачать? Как скачать Венецианский купец через торрент | UTorrent

28-11-2019 20:33  

Отключить всю рекламу на сайте

    Дорогой пользователь! Огромная просьба, поблагодарите релизера, оцените раздачу и оставьте свои комментарий, если Вы скачали Венецианский купец через торрент бесплатно! Внесите свою лепту в развитие PiratBit!
    Комментировать посты могут только пользователи прошедшие не сложную регистрацию
    Показать сообщения:    

    Венецианский купец через торрент
    Скачать бесплатно Венецианский купец
    Венецианский купец скачать торрент
    Венецианский купец смотреть онлайн
    Cкачать фильм Венецианский купец бесплатно
    Венецианский купец скачать торрент в хорошем качестве
    Венецианский купец смотреть онлайн бесплатно в хорошем качестве


    Вы не можете начинать темы
    Вы не можете отвечать на сообщения
    Вы не можете редактировать свои сообщения
    Вы не можете удалять свои сообщения
    Вы не можете голосовать в опросах
    Вы не можете прикреплять файлы к сообщениям
    Вы можете скачивать файлы