1 сезон

1 сезон

iTunes

1

КиноПоиск HD

Кинопоиск HD

iTunes

13

1 сезон

RePack

30

Ultimate

ВАЖНО

ИГРА 18+

pack

RePack

MK11
pack

Легкие деньги

RePack

jed

RePack

fifa19

RePack

RDR2

RePack

NEED FOR SPEED™ PAYBACK

4 сезон

9 сезон

Бесстыжие 9 сезон

Все сериалы

все сериалы на PB.wtf

RePack

FAR CRY 5
  
Magnet ссылка

Защита от дурака / Foolproof (Уильям Филлипс) [2003, боевик, триллер, комедия, криминал, DVDRip] DUB pb.wtf

Защита от дурака через торрент pb.wtf

Размер: 1.37 GB | Добавлен: 6 лет 7 мес. назад | Торрент скачан:195 раз
Скачать  

03-09-2014 18:53 Защита от дурака Скачать торрент  

Защита от дурака / Foolproof
«This fall suspense gets intense!»


Год выпуска: 2003
Страна: Канада
Жанр: боевик, триллер, комедия, криминал
Продолжительность: 01:29:59
Перевод: Профессиональный (дублированный)

Режиссер: Уильям Филлипс
Сценарий: Уильям Филлипс
Продюсер: Атом Эгоян, Билл Хаус, Ситон МакЛин
Оператор: Дерек Роджерс
Композитор : Джим МакГрат
Художник: Стефан Ролофф, Адам Колодзей, Линда Мьюир
Монтаж: Сьюзэн Шиптон

В ролях: Райан Рейнольдс / Ryan Reynolds (Kevin), Кристин Бут / Kristin Booth (Sam), Джорис Джарски / Joris Jarsky (Rob), Дэвид Суше / David Suchet (Leo Gillette), Шон Грегори Салливан / Sean Gregory Sullivan (Stan), Тара Слоун / Tara Slone (Maggie), Су Гарай / Soo Garay (Hamish Receptionist), Дэвид Хьюлетт / David Hewlett (Lawrence Yeager)


Описание: Кевин, Саманта и Боб — члены частного клуба «Фулпрув» -занимаются разработкой технических способов защиты от грабежей и теоретическим осуществлением самых невыполнимых ограблений. В реальности же они не осуществили ни одного грабежа. Но все меняется, когда бандит Лео — криминальный авторитет, заполучает их план по краже бриллиантов и успешно осуществляет ограбление.Он шантажирует горе-умников, угрожая выдать их как соучастников, требуя разработать план еще одного ограбления, где на кон поставлены 10 млн $. Теперь ребятам нужен не только тщательно разработанный план ограбления, но как никогда раньше надежный способ остаться в живых…

Бюджет: CAD 8 000 000
Сборы в США: $460 978
Сборы в России: $230 000
Зрители: США 80 тыс.

Премьера (мир): 3 октября 2003
Премьера (РФ): 19 февраля 2004, «Люксор»
Релиз на DVD: 5 апреля 2004, «Videogram»
Рейтинг MPAA: Лицам до 17 лет обязательно присутствие взрослого


Качество: DVDRip
Формат: AVI
Видео кодек: XviD
Аудио кодек: AC3
Видео: 720x544 (4:3), 25.000 fps, XviD, 1 785 Kbps
Аудио: Аудио #1: AC3, 384 Kbps, 48.0 KHz, 6 ch

Код:

General
Complete name                    : Zashita ot duraka(2003) DVDRip.avi
Format                           : AVI
Format/Info                      : Audio Video Interleave
File size                        : 1.37 GiB
Duration                         : 1h 29mn
Overall bit rate                 : 2 176 Kbps
Writing application              : VirtualDubMod 1.5.4.1 (build 2178/release)
Writing library                  : VirtualDubMod build 2178/release

Video
ID                               : 0
Format                           : MPEG-4 Visual
Format profile                   : Advanced Simple@L5
Format settings, BVOP            : Yes
Format settings, QPel            : No
Format settings, GMC             : No warppoints
Format settings, Matrix          : Custom
Codec ID                         : XVID
Codec ID/Hint                    : XviD
Duration                         : 1h 29mn
Bit rate                         : 1 785 Kbps
Width                            : 720 pixels
Height                           : 544 pixels
Display aspect ratio             : 4:3
Frame rate                       : 25.000 fps
Color space                      : YUV
Chroma subsampling               : 4:2:0
Bit depth                        : 8 bits
Scan type                        : Progressive
Bits/(Pixel*Frame)               : 0.182
Stream size                      : 1.12 GiB (82%)
Writing library                  : XviD 1.2.0.dev47 (UTC 2006-11-01)

Audio
ID                               : 1
Format                           : AC-3
Format/Info                      : Audio Coding 3
Mode extension                   : CM (complete main)
Codec ID                         : 2000
Duration                         : 1h 29mn
Bit rate mode                    : Constant
Bit rate                         : 384 Kbps
Channel(s)                       : 6 channels
Channel positions                : Front: L C R, Side: L R, LFE
Sampling rate                    : 48.0 KHz
Bit depth                        : 16 bits
Stream size                      : 247 MiB (18%)
Alignment                        : Aligned on interleaves
Interleave, duration             : 96 ms (2.40 video frames)
Interleave, preload duration     : 96 ms

pb.wtf



Скачать Защита от дурака через торрент http://i65.fastpic.ru/big/2014/0903/02/c4d54f76f02bf7c3ebecf345a686de02.jpg Скачать фильм Защита от дурака через торрент бесплантно в хорошем качестве Описание: Кевин, Саманта и Боб — члены частного клуба «Фулпрув» -занимаются разработкой технических способов защиты от грабежей и ... 9.8 10 10
Торрент: Зарегистрирован [2014-09-03 18:53] · скачан: 195 раз
Статус: √ проверено
Размер: 1.37 GB
Как cкачать? Как скачать Защита от дурака через торрент | UTorrent

% Раздел Тема Автор DL S | L
Фильмы 2001-2005 [ 1.58 GB ] Защита от дурака / Foolproof [2003 HDRip-AVC DUB + Оригинал] lev1244v Скачать
1 | 0

28-11-2019 20:33  

Отключить всю рекламу на сайте

    Дорогой пользователь! Огромная просьба, поблагодарите релизера, оцените раздачу и оставьте свои комментарий, если Вы скачали Защита от дурака через торрент бесплатно! Внесите свою лепту в развитие PiratBit!
    Комментировать посты могут только пользователи прошедшие не сложную регистрацию
    Показать сообщения:    

    Защита от дурака через торрент
    Скачать бесплатно Защита от дурака
    Защита от дурака скачать торрент
    Защита от дурака смотреть онлайн
    Cкачать фильм Защита от дурака бесплатно
    Защита от дурака скачать торрент в хорошем качестве
    Защита от дурака смотреть онлайн бесплатно в хорошем качестве


    Вы не можете начинать темы
    Вы не можете отвечать на сообщения
    Вы не можете редактировать свои сообщения
    Вы не можете удалять свои сообщения
    Вы не можете голосовать в опросах
    Вы не можете прикреплять файлы к сообщениям
    Вы можете скачивать файлы