Ссылка на приватное зеркало нашего сайта всего за 1$. Внимание количество ограничено!!!

2 сезон

iTunes

1 сезон

1

2 сезон

2 сезон

iTunes

1 сезон

RePack

30

Новинка

ВАЖНО

ИГРА 18+

pack

RePack

MK11
pack

Забери бонус

RePack

jed

!!Акция!!

Alien_Rage

RePack

fifa19

RePack

Assassins Creed: Odyssey

RePack

NEED FOR SPEED™ PAYBACK

4 сезон

9 сезон

Бесстыжие 9 сезон

Все сериалы

все сериалы на PB.wtf

RePack

FAR CRY 5
  

Форсаж / The Fast and the Furious (Роб Коэн) [2001 г., Боевик / Криминал, Blu-ray, Профессиональный многоголосый] pb.wtf

Форсаж через торрент pb.wtf

Размер: 38.31 GB | Добавлен: 6 лет 2 мес. назад | Торрент скачан:0 раз
Скачать  

03-09-2014 20:18 Форсаж Скачать торрент  

Форсаж / The Fast and the Furious
Год выпуска: 2001
Страна: США
Жанр: Боевик / Криминал
Продолжительность: 01:46:50
Перевод: Профессиональный многоголосый+Португальский+Чешский+
Венгерский+Испанский+Польский+Тайский+Оригинал+Оригинал | Комментарии режиссера Роба Коэна |
Субтитры: Английские, Болгарские, Хорватские, Чешские, Греческие, Иврит, Венгерские, Исландские, Польские, Португальские, Румынские, Русские, Испанские, Тайские, Турецкие

Режиссер: Роб Коэн

В ролях: Пол Уокер, Вин Дизель, Мишель Родригез, Джордана Брюстер, Рик Йун, Чад Линдберг, Джонни Стронг, Мэтт Шульц, Тед Ливайн, Ja Rule, Вито Руджинис, Том Бэрри, Стэнтон Рутледж, Noel Gugliemi, Р.Дж. Де Вера, Бо Холден, Регги Ли, Дэвид Дуглас, Питер Нэви Туясосопо, Нил Х. Мориц

Описание: Его зовут Брайан, и он — фанатик турбин и нитроускорителей. Его цель — быть принятым в автобанду легендарного Доминика Торетто, чемпиона опасных и незаконных уличных гонок. Но это лишь часть правды… Брайан также полицейский, имеющий задание войти в доверие к Торетто, подозреваемому в причастности к дерзким грабежам трейлеров, совершенным прямо "с колес".
Но чем больше доверяет нахальному новичку харизматичный Доминик, тем больше проникается герой идеалами "ангелов дорог". И тем меньше ему хочется выполнять свою миссию. И вот, наступает момент, когда Брайану придется выбирать между дружбой и долгом. И выбирать на скорости в 200 километров в час…

Доп. информация: * «Чарджер» Дома
* Жить одним моментом
* «The Fast and the Furious»: видео-микс
* Удаленные сцены
* Самое свежее
* Социальная реклама Пола Уокера
* Рассказ о съемках «The Fast and the Furious»
* Еще безумнее
* Тюнинг крутой импортной тачки
* Включай турбонаддув: вступление к «2 Fast 2 Furious»
* Эпизод с трюком - разные ракурсы
* Интерактивная магия кино - спецэффекты
* Рассказ о монтаже для Американской ассоциации кино
* Монтаж визуальных эффектов
* Сравнение раскадровки с фильмом
* За кулисами «2 Fast 2 Furious»
* Видеоклипы
* Рекламный ролик
* Комментарий к фильму режиссера Роба Коэна
* U-CONTROL

Качество: Blu-ray
Формат: BDMV
Видео кодек: H.264
Аудио кодек: DTS-AC3
Видео: MPEG-4 AVC, (1920x1080),24098Кбит/с, 23.976 кадра/сек
Аудио#1: DTS 6 ch,1509 kbps (Eng) 48.0 KHz Оригинал
Аудио#2: DTS 6 ch,768 kbps (Portug) 48.0 KHz Португальский
Аудио#3: DTS 6 ch,768 kbps (Czech) 48.0 KHz Чешский
Аудио#4: DTS 6 ch,768 kbps (Hung) 48.0 KHz Венгерский
Аудио#5: DTS 6 ch,768 kbps (Spanish) 48.0 KHz Испанский
Аудио#6: DTS 6 ch,768 kbps (Polish) 48.0 KHz Польский
Аудио#7: DTS 6 ch,768 kbps (Rus) 48.0 KHz Профессиональный многоголосый
Аудио#8: DTS 6 ch,768 kbps (Tai) 48.0 KHz Тайский
Аудио#9: AC3, 2ch,192 kbps (Eng) 48.0 KHz Оригинал | Комментарии режиссера Роба Коэна |
Аудио#10: DTS 2 ch,192 kbps (Eng) 48.0 KHz Оригинал
скриншот   скриншот   скриншот  

Тип потока: Видео
Длительность: 01:46:50
Кодек: VC-1
Кодек/профиль: Advanced@L3
Кодек/ID: 234
Размеры изображения: 1920 x 1080 (16:9)
Частота кадров: 23.976 fps
Метод сжатия: Lossy
Цветовое пространство: YUV
Тип развёртки: Progressive
Колориметрия: 4:2:0
Глубина: 8 bits
:
Тип потока: Звук #1
Длительность: 01:46:50.987
Кодек: DTS
Кодек/описание: Digital Theater Systems
Кодек/профиль: MA / Core
Режим смешивания: Stream extension
Кодек/ID: 134
Частота дискретизации: 48.0 KHz
Каналов: 6 channels
Битрейт: Unknown / 1 509 Kbps
Битрейт/тип: Variable
Глубина: 24 bits
Метод сжатия: Lossless / Lossy
:
Тип потока: Звук #2
Длительность: 01:46:50.998
Кодек: DTS
Кодек/описание: Digital Theater Systems
Кодек/ID: 130
Частота дискретизации: 48.0 KHz
Каналов: 6 channels
Битрейт: 768 Kbps
Битрейт/тип: Constant
Размер потока: 587 MiB (2%)
Глубина: 24 bits
Метод сжатия: Lossy
:
Тип потока: Звук #3
Длительность: 01:46:50.998
Кодек: DTS
Кодек/описание: Digital Theater Systems
Кодек/ID: 130
Частота дискретизации: 48.0 KHz
Каналов: 6 channels
Битрейт: 768 Kbps
Битрейт/тип: Constant
Размер потока: 587 MiB (2%)
Глубина: 24 bits
Метод сжатия: Lossy
:
Тип потока: Звук #4
Длительность: 01:46:50.998
Кодек: DTS
Кодек/описание: Digital Theater Systems
Кодек/ID: 130
Частота дискретизации: 48.0 KHz
Каналов: 6 channels
Битрейт: 768 Kbps
Битрейт/тип: Constant
Размер потока: 587 MiB (2%)
Глубина: 24 bits
Метод сжатия: Lossy
:
Тип потока: Звук #5
Длительность: 01:46:50.998
Кодек: DTS
Кодек/описание: Digital Theater Systems
Кодек/ID: 130
Частота дискретизации: 48.0 KHz
Каналов: 6 channels
Битрейт: 768 Kbps
Битрейт/тип: Constant
Размер потока: 587 MiB (2%)
Глубина: 24 bits
Метод сжатия: Lossy
:
Тип потока: Звук #6
Длительность: 01:46:50.998
Кодек: DTS
Кодек/описание: Digital Theater Systems
Кодек/ID: 130
Частота дискретизации: 48.0 KHz
Каналов: 6 channels
Битрейт: 768 Kbps
Битрейт/тип: Constant
Размер потока: 587 MiB (2%)
Глубина: 24 bits
Метод сжатия: Lossy
:
Тип потока: Звук #7
Длительность: 01:46:50.998
Кодек: DTS
Кодек/описание: Digital Theater Systems
Кодек/ID: 130
Частота дискретизации: 48.0 KHz
Каналов: 6 channels
Битрейт: 768 Kbps
Битрейт/тип: Constant
Размер потока: 587 MiB (2%)
Глубина: 24 bits
Метод сжатия: Lossy
:
Тип потока: Звук #8
Длительность: 01:46:50.998
Кодек: DTS
Кодек/описание: Digital Theater Systems
Кодек/ID: 130
Частота дискретизации: 48.0 KHz
Каналов: 6 channels
Битрейт: 768 Kbps
Битрейт/тип: Constant
Размер потока: 587 MiB (2%)
Глубина: 24 bits
Метод сжатия: Lossy
:
Тип потока: Звук #9
Длительность: 01:46:51.008
Кодек: AC-3
Кодек/описание: Audio Coding 3
Кодек/профиль: Dolby Digital
Кодек/ID: 129
Частота дискретизации: 48.0 KHz
Каналов: 2 channels
Битрейт: 192 Kbps
Битрейт/тип: Constant
Размер потока: 147 MiB (0%)
Глубина: 16 bits
Метод сжатия: Lossy
:
Тип потока: Звук #10
Длительность: 01:46:50.923
Кодек: DTS
Кодек/описание: Digital Theater Systems
Кодек/профиль: Express
Кодек/ID: 162
Частота дискретизации: 48.0 KHz
Каналов: 2 channels
Битрейт: 192 Kbps
Битрейт/тип: Constant
Размер потока: 147 MiB (0%)
Глубина: 24 bits
Метод сжатия: Lossy
:
Тип потока: Субтитры #1
Формат: PGS
:
Тип потока: Субтитры #2
Формат: PGS
:
Тип потока: Субтитры #3
Формат: PGS
:
Тип потока: Субтитры #4
Формат: PGS
:
Тип потока: Субтитры #5
Формат: PGS
:
Тип потока: Субтитры #6
Формат: PGS
:
Тип потока: Субтитры #7
Формат: PGS
:
Тип потока: Субтитры #8
Формат: PGS
:
Тип потока: Субтитры #9
Формат: PGS
:
Тип потока: Субтитры #10
Формат: PGS
:
Тип потока: Субтитры #11
Формат: PGS
:
Тип потока: Субтитры #12
Формат: PGS
:
Тип потока: Субтитры #13
Формат: PGS
:
Тип потока: Субтитры #14
Формат: PGS
:
Тип потока: Субтитры #15
Формат: PGS
:
Тип потока: Субтитры #16
Формат: PGS
:
Тип потока: Субтитры #17
Формат: PGS
:
Тип потока: Субтитры #18
Формат: PGS
:
Тип потока: Субтитры #19
Формат: PGS
:
Тип потока: Субтитры #20
Формат: PGS
:
Тип потока: Субтитры #21
Формат: PGS
:
Тип потока: Субтитры #22
Формат: PGS
:
Тип потока: Субтитры #23
Формат: PGS
:
Тип потока: Субтитры #24
Формат: PGS
:
Тип потока: Субтитры #25
Формат: PGS
:
Тип потока: Субтитры #26
Формат: PGS
:
Тип потока: Субтитры #27
Формат: PGS
:
Тип потока: Субтитры #28
Формат: PGS
:
Тип потока: Субтитры #29
Формат: PGS
:
Тип потока: Субтитры #30
Формат: PGS

pb.wtf



Скачать Форсаж через торрент http://pic.kartinco.top/images/7/mmdw3.jpg Скачать фильм Форсаж через торрент бесплантно в хорошем качестве Описание: Его зовут Брайан, и он — фанатик турбин и нитроускорителей. Его цель — быть принятым в автобанду легендарного Доминика Торетто, ... 10 10 7
Info! Золотая раздача, скачанное не засчитывается.
Торрент: Зарегистрирован [2014-09-03 20:18] · скачан: 0 раз
Статус: √ проверено
Размер: 38.31 GB
Как cкачать? Как скачать Форсаж через торрент | qTorrent

% Раздел Тема Автор DL S | L
Сборники и Сиквелы (48-60 fps) [ 25.55 GB ] Форсаж : Антология / The Fast and the Furious : Antology [2001-2015 Германия BDRip-AVC 60fps ] от R.G. HD-Films Tiberiumsun69 Скачать
2 | 0
Ultra HD (UHD: 2K, 4K, 8K) — видео сверхвысокой чёткости [ 54.43 GB ] Тройной форсаж: Токийский Дрифт / The Fast and the Furious: Tokyo Drift [2006 UHD Blu-ray 2160] DUB [] bober100 Скачать
1 | 0
Ultra HD (UHD: 2K, 4K, 8K) — видео сверхвысокой чёткости [ 61.54 GB ] Форсаж / The Fast and the Furious [2001 UHD Blu-Ray 2160p] DUB + 2xMVO + 2xDVO + 2xAVO sheker187 Скачать
1 | 0
Ultra HD (UHD: 2K, 4K, 8K) — видео сверхвысокой чёткости [ 16.9 GB ] Тройной форсаж: Токийский дрифт / The Fast and the Furious: Tokyo Drift [2006 UHD BDRip 2160p] DUB + 2xAVO sheker187 Скачать
1 | 0
Ultra HD (UHD: 2K, 4K, 8K) — видео сверхвысокой чёткости [ 57.82 GB ] Тройной форсаж: Токийский дрифт / The Fast and the Furious: Tokyo Drift [2006 UHD BDRemux 2160p] DUB + 2xAVO sheker187 Скачать
1 | 0
Ultra HD (UHD: 2K, 4K, 8K) — видео сверхвысокой чёткости [ 23.28 GB ] Форсаж / The Fast and the Furious [2001 UHD BDRip 2160p] DUB + MVO + 2xDVO + 3xAVO sheker187 Скачать
1 | 0
Ultra HD (UHD: 2K, 4K, 8K) — видео сверхвысокой чёткости [ 55.89 GB ] Форсаж / The Fast and the Furious [2001 UHD BDRemux 2160p] 2xDUB + MVO + 2xDVO + 4xAVO sheker187 Скачать
2 | 0


Последний раз редактировалось: Бумер (2014-09-03 20:30), всего редактировалось 1 раз

28-11-2019 20:33  

Отключить всю рекламу на сайте

03-09-2014 20:28 Форсаж Скачать торрент  

фильм супер
плюс доп инфа
просто класс
я давно искал такое что бы выложитьpb.wtf



    Дорогой пользователь! Огромная просьба, поблагодарите релизера, оцените раздачу и оставьте свои комментарий, если Вы скачали Форсаж через торрент бесплатно! Внесите свою лепту в развитие PiratBit!
    Комментировать посты могут только пользователи прошедшие не сложную регистрацию
    Показать сообщения:    

    Форсаж через торрент
    Скачать бесплатно Форсаж
    Форсаж скачать торрент
    Форсаж смотреть онлайн
    Cкачать фильм Форсаж бесплатно
    Форсаж скачать торрент в хорошем качестве
    Форсаж смотреть онлайн бесплатно в хорошем качестве


    Вы не можете начинать темы
    Вы не можете отвечать на сообщения
    Вы не можете редактировать свои сообщения
    Вы не можете удалять свои сообщения
    Вы не можете голосовать в опросах
    Вы не можете прикреплять файлы к сообщениям
    Вы можете скачивать файлы