2 сезон

iTunes

MVO

1

2 сезон

iTunes

iTunes

1 сезон

RePack

30

Новинка

ВАЖНО

ИГРА 18+

pack

RePack

MK11
pack

Легкие деньги

RePack

jed

RePack

fifa19

RePack

RDR2

RePack

NEED FOR SPEED™ PAYBACK

4 сезон

9 сезон

Бесстыжие 9 сезон

Все сериалы

все сериалы на PB.wtf

RePack

FAR CRY 5

Anonymous, добрый день, мы не успеваем собрать деньги на оплату серверов за декабрь и январь, помогите нам пожалуйста в это трудное время. В качестве благодарности мы отключим Вам всю рекламу на сайте (укажите свой ник в строку Ваше имя)!

×
  
Magnet ссылка

Кладбище / The Cemetery (Адам Албрандт) [2013, ужасы, HDRip, Любительский (двухголосый)[den904, DeadSno] pb.wtf

Кладбище через торрент pb.wtf

Размер: 1.38 GB | Добавлен: 6 лет 4 мес. назад | Торрент скачан:517 раз
Скачать  

03-09-2014 21:26 Кладбище Скачать торрент  

Кладбище / The Cemetery


Год выпуска: 2013
Страна: США
Жанр:ужасы
Продолжительность:01:21:53
Перевод:Любительский (двухголосый)[den904, DeadSno]
Режиссер:Адам Албрандт

  • В ролях:

    Дж.Д. Браун (Bill), Natalie Jean (Andrea), Адам Хасс (Tim), Тим Кронин (Mike), Табета Рэй (Sandra), Билли Грэм (Demon / Indian), Роберто Ломбарди (The Priest), Руби ЛаРокка (Meg), Victor Bonacore (Doug), Гордон Прайс (Torture victim), Лиз Уолш (Torture Victim), Allegra DiNetta (Torture Victim)

  • Описание:
    Глубоко в горах Пенсильвании находится тщательно скрываемое церковью кладбище для тех, кто погиб во время экзорцизма. В 1671, сотни мужчин, женщин и детей пострадали от кровавых, мучительных ритуалов в руках жрецов, не способных совлать с вселившимся в них злом. Было ли всё это реально, или эта история обман, чтобы прикрыть грехи невменяемых священников жаждущих человеческой крови? Билл и его команда циничных паранормальных следователей планируют выяснить правду. Как отмечает производитель и ведущий реалити-шоу "Искатели Духа," Билл и его команда видели все: заброшенные тюрьмы, дома с привидениями, и ветхие психиатрические больницы. Ночь за ночью в скучных поездках вселили в них уверенность, что призраки есть плод человеческого воображения. Вооружившись историческими докуметами церкви, они отправились в глушь, чтобы раскрыть эту серию забытых злодеяний. Демоны прошлого...

  • Мировая премьера:12 января 2013


    Ограничение по возрасту +21
    Качество: HDRip
    Формат:AVI
    Видео кодек: XviD
    Аудио кодек:AC3
    Видео: XviD, 720x400 (16:9), 2022 kbps, 23,976 fps, 0,293 bpp
    Аудио №1: AC3 / 2.0 / 48 kHz / 192 kbps / Русский
    Аудио №2: AC3 / 2.0 / 44 kHz / 192 kbps / Английский


    Код:

    General
    Complete name                            : D:\Торенты\The.Cemetery.2013.HDRip.1400mb.avi
    Format                                   : AVI
    Format/Info                              : Audio Video Interleave
    File size                                : 1.38 GiB
    Duration                                 : 1h 21mn
    Overall bit rate                         : 2 421 Kbps
    Writing application                      : VirtualDubModRus 1.5.10.2 (build 2542/release)
    Writing library                          : VirtualDubMod build 2542/release

    Video
    ID                                       : 0
    Format                                   : MPEG-4 Visual
    Format profile                           : Advanced Simple@L5
    Format settings, BVOP                    : 2
    Format settings, QPel                    : No
    Format settings, GMC                     : No warppoints
    Format settings, Matrix                  : Default (H.263)
    Codec ID                                 : XVID
    Codec ID/Hint                            : XviD
    Duration                                 : 1h 21mn
    Bit rate                                 : 2 023 Kbps
    Width                                    : 720 pixels
    Height                                   : 400 pixels
    Display aspect ratio                     : 16:9
    Frame rate                               : 23.976 fps
    Color space                              : YUV
    Chroma subsampling                       : 4:2:0
    Bit depth                                : 8 bits
    Scan type                                : Progressive
    Compression mode                         : Lossy
    Bits/(Pixel*Frame)                       : 0.293
    Stream size                              : 1.16 GiB (84%)
    Writing library                          : XviD 1.2.1 (UTC 2008-12-04)

    Audio #1
    ID                                       : 1
    Format                                   : AC-3
    Format/Info                              : Audio Coding 3
    Mode extension                           : CM (complete main)
    Codec ID                                 : 2000
    Duration                                 : 1h 21mn
    Bit rate mode                            : Constant
    Bit rate                                 : 192 Kbps
    Channel(s)                               : 2 channels
    Channel positions                        : Front: L R
    Sampling rate                            : 48.0 KHz
    Bit depth                                : 16 bits
    Compression mode                         : Lossy
    Stream size                              : 112 MiB (8%)
    Alignment                                : Split accross interleaves
    Interleave, duration                     : 42 ms (1.00 video frame)
    Interleave, preload duration             : 500 ms

    Audio #2
    ID                                       : 2
    Format                                   : AC-3
    Format/Info                              : Audio Coding 3
    Mode extension                           : CM (complete main)
    Codec ID                                 : 2000
    Duration                                 : 1h 21mn
    Bit rate mode                            : Constant
    Bit rate                                 : 192 Kbps
    Channel(s)                               : 2 channels
    Channel positions                        : Front: L R
    Sampling rate                            : 44.1 KHz
    Bit depth                                : 16 bits
    Compression mode                         : Lossy
    Stream size                              : 112 MiB (8%)
    Alignment                                : Split accross interleaves
    Interleave, duration                     : 42 ms (1.00 video frame)
    Interleave, preload duration             : 500 ms

    Скриншоты:

    Срочно! Нужна помощь!

    © Оформление by Raven
    pb.wtf



  • Скачать Кладбище через торрент https://pic.kartinco.top/images/6/stazu.jpg Скачать фильм Кладбище через торрент бесплантно в хорошем качестве Описание:Глубоко в горах Пенсильвании находится тщательно скрываемое церковью кладбище для тех, кто погиб во время экзорцизма. В 1671, ... 8.9 10 20
    Торрент: Зарегистрирован [2014-09-03 21:26] · скачан: 517 раз
    Статус: √ проверено
    Размер: 1.38 GB
    Как cкачать? Как скачать Кладбище через торрент | UTorrent

    % Раздел Тема Автор DL S | L
    Ultra HD (UHD: 2K, 4K, 8K) — видео сверхвысокой чёткости [ 46.41 GB ] Дом на краю кладбища / Quella villa accanto al cimitero / The House By The Cemetery [1981 UHD BDRemux 2160p ] MVO [] bober100 Скачать
    1 | 2
    Ultra HD (UHD: 2K, 4K, 8K) — видео сверхвысокой чёткости [ 53.15 GB ] Дом на краю кладбища / Quella villa accanto al cimitero / The House By The Cemetery [1981 UHD BDRemux 2160p ] MVO [] +2xAVO bober100 Скачать
    1 | 0
    Фильмы [HD 720p, 1080p] (Звук Cam, VO, DVO) [ 3.49 GB ] Кладбище / The Cemetery [2013 BDRip 720pЛюбительский [den904 & DeadSno] Gofa Скачать
    1 | 0

    28-11-2019 20:33  

    Отключить всю рекламу на сайте

    04-09-2014 04:23 Кладбище Скачать торрент  

    Ограничение по возрасту +21? Это что за? Порноужасы какие то что ли?pb.wtf



    04-09-2014 05:00 Кладбище Скачать торрент  

    Тема сисек и писек раскрыта полностью? pb.wtf



    04-09-2014 05:41 Кладбище Скачать торрент  

    как фильм? кто-нибудь видел?pb.wtf



    04-09-2014 06:24 Кладбище Скачать торрент  

    Чушь какая-то. Промотал и удалил.pb.wtf



    04-09-2014 13:15 Кладбище Скачать торрент  

    дешевый трешакpb.wtf



    04-09-2014 13:16 Кладбище Скачать торрент  

    Титьки есть, сюжета не надо pb.wtf



    04-09-2014 15:08 Кладбище Скачать торрент  

    !!! СИСЬКИ !!! pb.wtf



    05-09-2014 15:11 Кладбище Скачать торрент  

    А если детские каменты не смотреть....., кто посмотрел? есть нормальные отзывы?pb.wtf



      Дорогой пользователь! Огромная просьба, поблагодарите релизера, оцените раздачу и оставьте свои комментарий, если Вы скачали Кладбище через торрент бесплатно! Внесите свою лепту в развитие PiratBit!
      Комментировать посты могут только пользователи прошедшие не сложную регистрацию
      Показать сообщения:    

      Кладбище через торрент
      Скачать бесплатно Кладбище
      Кладбище скачать торрент
      Кладбище смотреть онлайн
      Cкачать фильм Кладбище бесплатно
      Кладбище скачать торрент в хорошем качестве
      Кладбище смотреть онлайн бесплатно в хорошем качестве


      Вы не можете начинать темы
      Вы не можете отвечать на сообщения
      Вы не можете редактировать свои сообщения
      Вы не можете удалять свои сообщения
      Вы не можете голосовать в опросах
      Вы не можете прикреплять файлы к сообщениям
      Вы можете скачивать файлы