1 сезон

1 сезон

iTunes

1

КиноПоиск HD

Кинопоиск HD

iTunes

13

1 сезон

RePack

30

Ultimate

ВАЖНО

ИГРА 18+

pack

RePack

MK11
pack

Легкие деньги

RePack

jed

RePack

fifa19

RePack

RDR2

RePack

NEED FOR SPEED™ PAYBACK

4 сезон

9 сезон

Бесстыжие 9 сезон

Все сериалы

все сериалы на PB.wtf

RePack

FAR CRY 5
  
Magnet ссылка

Город грехов / Sin City (Фрэнк Миллер / Frank Miller, Роберт Родригес / Robert Rodriguez, Квентин Тарантино / Quentin Tarantino) [2005, США, боевик, триллер, криминал, HDRip-AVC,] Дубляж - [Лицензия] От R.G. PiratFilms pb.wtf

Город грехов через торрент pb.wtf

Размер: 2.52 GB | Добавлен: 6 лет 7 мес. назад | Торрент скачан:616 раз
Скачать  

04-09-2014 04:01 Город грехов Скачать торрент  

Город грехов
«Смертельный немного Михо»


Год выпуска: 2005
Страна: США
Жанр: боевик, триллер, криминал, детектив
Продолжительность: 02:03:59
Перевод: Дубляж - [Лицензия]
Субтитры: Нет
Режиссер: Фрэнк Миллер / Frank Miller, Роберт Родригес / Robert Rodriguez, Квентин Тарантино / Quentin Tarantino
В ролях:

Брюс Уиллис (Hartigan), Микки Рурк (Marv), Клайв Оуэн (Dwight), Розарио Доусон (Gail), Джессика Альба (Nancy Callahan), Бенисио Дель Торо (Jackie Boy), Джейми Кинг (Goldie / Wendy), Ник Стал (Roark Jr. / Yellow Bastard), Девон Аоки (Miho), Алексис Бледел (Becky), Бриттани Мерфи (Shellie), Карла Гуджино (Lucille)
Описание:
Город грехов - это адская бездна преступлений. Один из его жителей пытается найти убийцу своей подруги. Другой, фотограф, случайно становится свидетелем убийства полицейского и старается скрыть преступление. Спуститесь по глухому переулку города, и вы найдете кое-что еще. В Городе грехов полиция коррумпирована и улицы смертельно опасны...
Мировая премьера: 28 марта 2005
Релиз от:
    Качество: HDRip-AVC (исх. BDRip 1080р)
    Формат: MKV
    Видео кодек: AVC
    Аудио кодек:AC3
    Видео: AVC, 1024x550 (1.862), 2459 kbps, 23,976 fps, 0,182 bpp
    Аудио: русский / AC3 / 5.1 / 48 kHz / 448 kbps / 16 bit


Код:

---[Information] [04.09.2014 1:59:03] x264 [info]: frame I:1428  Avg QP:14.69  size: 72668  PSNR Mean Y:47.73 U:54.88 V:53.88 Avg:48.99 Global:48.40
---[Information] [04.09.2014 1:59:03] x264 [info]: frame P:39819 Avg QP:18.69  size: 23698  PSNR Mean Y:44.81 U:53.23 V:52.19 Avg:46.18 Global:45.52
---[Information] [04.09.2014 1:59:03] x264 [info]: frame B:137121 Avg QP:22.11  size:  9042  PSNR Mean Y:43.92 U:53.55 V:52.48 Avg:45.34 Global:44.37
---[Information] [04.09.2014 1:59:03] x264 [info]: consecutive B-frames:  2.3%  3.7%  7.5% 22.4% 16.6% 40.9%  2.8%  1.3%  0.7%  0.8%  1.1%

Код:

General
Unique ID                                : 229361656058473652960104907046829944414 (0xAC8D72B9F0C1165F970E6D96FC3BEE5E)
Complete name                            : D:\рипы От R.G. PiratFilms\Sin.City.2005.HDRip-AVC.by.White Smoke.R.G.PiratFilms.mkv
Format                                   : Matroska
Format version                           : Version 4 / Version 2
File size                                : 2.52 GiB
Duration                                 : 2h 3mn
Overall bit rate                         : 2 909 Kbps
Encoded date                             : UTC 2014-09-04 02:58:31
Writing application                      : mkvmerge v6.8.0 ('Theme for Great Cities') 64bit built on Mar  2 2014 21:34:26
Writing library                          : libebml v1.3.0 + libmatroska v1.4.1

Video
ID                                       : 1
Format                                   : AVC
Format/Info                              : Advanced Video Codec
Format profile                           : High@L4.1
Format settings, CABAC                   : Yes
Format settings, ReFrames                : 12 frames
Codec ID                                 : V_MPEG4/ISO/AVC
Duration                                 : 2h 3mn
Bit rate                                 : 2 459 Kbps
Width                                    : 1 024 pixels
Height                                   : 550 pixels
Display aspect ratio                     : 1.862
Frame rate                               : 23.976 fps
Color space                              : YUV
Chroma subsampling                       : 4:2:0
Bit depth                                : 8 bits
Scan type                                : Progressive
Bits/(Pixel*Frame)                       : 0.182
Stream size                              : 2.08 GiB (83%)
Writing library                          : x264 core 142 r2431 ac76440
Encoding settings                        : cabac=1 / ref=12 / deblock=1:-3:-3 / analyse=0x3:0x113 / me=umh / subme=9 / psy=1 / psy_rd=1.00:0.00 / mixed_ref=1 / me_range=32 / chroma_me=1 / trellis=1 / 8x8dct=1 / cqm=0 / deadzone=21,11 / fast_pskip=1 / chroma_qp_offset=-2 / threads=12 / lookahead_threads=3 / sliced_threads=0 / nr=0 / decimate=1 / interlaced=0 / bluray_compat=0 / constrained_intra=0 / bframes=10 / b_pyramid=2 / b_adapt=2 / b_bias=10 / direct=1 / weightb=1 / open_gop=0 / weightp=2 / keyint=240 / keyint_min=23 / scenecut=40 / intra_refresh=0 / rc_lookahead=40 / rc=2pass / mbtree=1 / bitrate=2459 / ratetol=1.0 / qcomp=0.65 / qpmin=0 / qpmax=69 / qpstep=4 / cplxblur=20.0 / qblur=0.5 / ip_ratio=1.40 / aq=1:1.00
Language                                 : English
Default                                  : Yes
Forced                                   : No

Audio
ID                                       : 2
Format                                   : AC-3
Format/Info                              : Audio Coding 3
Mode extension                           : CM (complete main)
Codec ID                                 : A_AC3
Duration                                 : 2h 3mn
Bit rate mode                            : Constant
Bit rate                                 : 448 Kbps
Channel(s)                               : 6 channels
Channel positions                        : Front: L C R, Side: L R, LFE
Sampling rate                            : 48.0 KHz
Bit depth                                : 16 bits
Compression mode                         : Lossy
Stream size                              : 397 MiB (15%)
Language                                 : Russian
Default                                  : Yes
Forced                                   : No


Скриншоты:
скриншот   скриншот   скриншот   скриншот   скриншот   скриншот  
За Обложку к релизу спасибо Weliar



pb.wtf



Скачать Город грехов через торрент https://pic.kartinco.top/new/img/2014-09/04/m5mp8hqzlkut6gdqe9pln5063.png Скачать фильм Город грехов через торрент бесплантно в хорошем качестве Описание: Город грехов - это адская бездна преступлений. Один из его жителей пытается найти убийцу своей подруги. Другой, фотограф, ... 9.7 10 34
Info! Золотая раздача, скачанное не засчитывается.
Торрент: Зарегистрирован [2014-09-04 04:05] · скачан: 616 раз
Статус: √ проверено
Размер: 2.52 GB
Как cкачать? Как скачать Город грехов через торрент | UTorrent

% Раздел Тема Автор DL S | L
Фильмы 2014 [DVDrip, WEB-DLRip, HDrip] [ 1.81 GB ] Город грехов 2: Женщина ради которой стоит убивать / Sin City: A Dame to Kill For [2014 Россия HDRip-AVC] - [] От R.G. PiratFilms White Smoke Скачать
1 | 0

28-11-2019 20:33  

Отключить всю рекламу на сайте

    Дорогой пользователь! Огромная просьба, поблагодарите релизера, оцените раздачу и оставьте свои комментарий, если Вы скачали Город грехов через торрент бесплатно! Внесите свою лепту в развитие PiratBit!
    Комментировать посты могут только пользователи прошедшие не сложную регистрацию
    Показать сообщения:    

    Город грехов через торрент
    Скачать бесплатно Город грехов
    Город грехов скачать торрент
    Город грехов смотреть онлайн
    Cкачать фильм Город грехов бесплатно
    Город грехов скачать торрент в хорошем качестве
    Город грехов смотреть онлайн бесплатно в хорошем качестве


    Вы не можете начинать темы
    Вы не можете отвечать на сообщения
    Вы не можете редактировать свои сообщения
    Вы не можете удалять свои сообщения
    Вы не можете голосовать в опросах
    Вы не можете прикреплять файлы к сообщениям
    Вы можете скачивать файлы