MEGA NEWS Получи личный уникальный адрес сайта и защити себя от блокировок. Внимание количество ограничено!!!

iTunes

1+1

iTunes

мы

iTunes

1

iTunes

Чернобыль

iTunes

Ральф против интернета

Лицензия

ПШазам

Лицензия

Игра престолов

Лицензия

30
pack

ВАЖНО

!!Акция!!

Alien_RageХит недели

RePack

Resident Evil 21

ИГРА 18+

pack

RePack

Metro:Exodus

!!Акция!!

Alien_Rage

RePack

fifa19

RePack

Assassins Creed: Odyssey

RePack

NEED FOR SPEED™ PAYBACK

3 сезон

9 сезон

Бесстыжие 9 сезон

Все сериалы

все сериалы на PB.wtf

RePack

FAR CRY 5
Ребята, катастрофически не хватает 1900р. для оплаты серверов за АВГУСТ (всвязи с блокировками трафик упал в 3 раза), 1-2р., выручайте.
  

Шерлок Холмс: Дилогия / Sherlock Holmes: Dilogy [2009-2011, США, Германия, боевик, триллер, драма, BDRip 720p / 60 FPS,Дубляж] pb.wtf

Шерлок Холмс: Дилогия через торрент pb.wtf

Раздают: 1 [ 0 KB/s ]
Размер: 12.94 GB | Добавлен: 5 лет 1 мес. назад | Торрент скачан:717 раз
Скачать  

04-09-2014 10:59 Шерлок Холмс: Дилогия Скачать торрент  

Перед скачиванием обязательно проверьте Сэмплы на своем оборудовании.
Raven за помощ при создании релиза и обложек

Название: Шерлок Холмс / Sherlock Holmes
Оригинальное название: Шерлок Холмс / Sherlock Holmes
Год выпуска: 2009
Страна: США, Германия
Жанр: боевик, триллер, драма, комедия, криминал, детектив, приключения
Продолжительность: 02:08:24
Перевод: Дубляж
Субтитры:Русские (Форсированные), русские (Полные), английские (полные)
Вид субтитров Вшитые, отключаемые
Главы Есть
Режиссер: Гай Ричи / Guy Ritchie
В ролях: Роберт Дауни мл. (Sherlock Holmes), Джуд Лоу (Dr. John Watson), Рэйчел МакАдамс (Irene Adler), Марк Стронг (Lord Blackwood), Эдди Марсан (Inspector Lestrade), Роберт Мэйллет (Dredger), Джеральдин Джеймс (Mrs. Hudson), Келли Райлли (Mary Morstan), Уильям Хьюстон (Constable Clark), Ганс Мэтисон (Lord Coward), Джеймс Фокс (Sir Thomas Rotheram), Уильям Хоуп (Ambassador Standish)
Описание:
Величайший в истории сыщик Шерлок Холмс вместе со своим верным соратником Ватсоном вступают в схватку, требующую нешуточной физической и умственной подготовки, ведь их враг представляет угрозу для всего Лондона.
Рейтинг
kinopoisk.ru: 8.183 (200 291)
imdb.com: 7.60 (366 570)
MPAA: PG-13 - Детям до 13 лет просмотр не желателен
Автор рипа:Tiberiumsun69

Качество: BDRip 720p / 60 FPS
Формат: MKV
Видео кодек: AVC
Аудио кодек:AC3
Видео: AVC, 1280x720), 6741 kbps, 59,940 fps
Аудио №1: русский / AC3 / 5.1 / 48 kHz / 448 kbps / 16 bit |Дубляж|
Аудио №2: английский / AC3 / 5.1 / 48 kHz / 640 kbps / 16 bit

General
Unique ID : 175347901257637162562413863865957191502 (0x83EAC701D5D41EB3A0E588FA6B878F4E)
Complete name : A:\720p 60fps\Шерлок Холмс 720p 60fps\Шерлок Холмс 1 720p 60fps.mkv
Format : Matroska
Format version : Version 4 / Version 2
File size : 7.17 GiB
Duration : 2h 8mn
Overall bit rate : 7 989 Kbps
Encoded date : UTC 2014-09-01 21:01:46
Writing application : mkvmerge v6.9.1 ('Blue Panther') 64bit built on Apr 18 2014 18:23:38
Writing library : libebml v1.3.0 + libmatroska v1.4.1

Video
ID : 1
Format : AVC
Format/Info : Advanced Video Codec
Format profile : High@L4.1
Format settings, CABAC : Yes
Format settings, ReFrames : 9 frames
Codec ID : V_MPEG4/ISO/AVC
Duration : 2h 8mn
Bit rate : 6 742 Kbps
Width : 1 280 pixels
Height : 720 pixels
Display aspect ratio : 16:9
Frame rate : 59.940 fps
Color space : YUV
Chroma subsampling : 4:2:0
Bit depth : 8 bits
Scan type : Progressive
Bits/(Pixel*Frame) : 0.122
Stream size : 6.05 GiB (84%)
Writing library : x264 core 133 r2334 a3ac64b
Encoding settings : cabac=1 / ref=9 / deblock=1:-1:-1 / analyse=0x3:0 / me=umh / subme=9 / psy=1 / psy_rd=1.00:0.10 / mixed_ref=1 / me_range=42 / chroma_me=0 / trellis=2 / 8x8dct=1 / cqm=0 / deadzone=21,11 / fast_pskip=0 / chroma_qp_offset=-3 / threads=12 / lookahead_threads=1 / sliced_threads=0 / nr=0 / decimate=0 / interlaced=0 / bluray_compat=0 / constrained_intra=0 / bframes=6 / b_pyramid=2 / b_adapt=2 / b_bias=0 / direct=1 / weightb=1 / open_gop=0 / weightp=2 / keyint=594 / keyint_min=59 / scenecut=40 / intra_refresh=0 / rc=crf / mbtree=0 / crf=15.0 / qcomp=0.60 / qpmin=0 / qpmax=69 / qpstep=4 / ip_ratio=1.40 / pb_ratio=1.30 / aq=0
Language : English
Default : Yes
Forced : No

Audio #1
ID : 2
Format : AC-3
Format/Info : Audio Coding 3
Mode extension : CM (complete main)
Codec ID : A_AC3
Duration : 2h 8mn
Bit rate mode : Constant
Bit rate : 448 Kbps
Channel(s) : 6 channels
Channel positions : Front: L C R, Side: L R, LFE
Sampling rate : 48.0 KHz
Bit depth : 16 bits
Compression mode : Lossy
Stream size : 411 MiB (6%)
Title : Дубляж
Language : Russian
Default : Yes
Forced : No

Audio #2
ID : 3
Format : AC-3
Format/Info : Audio Coding 3
Mode extension : CM (complete main)
Codec ID : A_AC3
Duration : 2h 8mn
Bit rate mode : Constant
Bit rate : 640 Kbps
Channel(s) : 6 channels
Channel positions : Front: L C R, Side: L R, LFE
Sampling rate : 48.0 KHz
Bit depth : 16 bits
Compression mode : Lossy
Stream size : 588 MiB (8%)
Title : Оригинал
Language : English
Default : No
Forced : No

Text #1
ID : 4
Format : UTF-8
Codec ID : S_TEXT/UTF8
Codec ID/Info : UTF-8 Plain Text
Title : Форсированные
Language : Russian
Default : Yes
Forced : No

Text #2
ID : 5
Format : UTF-8
Codec ID : S_TEXT/UTF8
Codec ID/Info : UTF-8 Plain Text
Title : Полные
Language : Russian
Default : No
Forced : No

Text #3
ID : 6
Format : UTF-8
Codec ID : S_TEXT/UTF8
Codec ID/Info : UTF-8 Plain Text
Title : Полные
Language : English
Default : No
Forced : No

Menu
00:00:00.000 : en:00:00:00.000
00:06:46.531 : en:00:06:46.531
00:11:30.230 : en:00:11:30.230
00:15:41.606 : en:00:15:41.606
00:19:08.896 : en:00:19:08.896
00:23:29.074 : en:00:23:29.074
00:27:49.875 : en:00:27:49.875
00:32:01.251 : en:00:32:01.251
00:37:08.434 : en:00:37:08.434
00:40:50.405 : en:00:40:50.405
00:44:37.215 : en:00:44:37.215
00:47:39.690 : en:00:47:39.690
00:50:52.172 : en:00:50:52.172
00:55:17.605 : en:00:55:17.605
00:59:04.456 : en:00:59:04.456
01:03:04.780 : en:01:03:04.780
01:06:08.047 : en:01:06:08.047
01:11:14.103 : en:01:11:14.103
01:14:39.349 : en:01:14:39.349
01:17:36.318 : en:01:17:36.318
01:23:35.092 : en:01:23:35.092
01:26:06.953 : en:01:26:06.953
01:30:57.158 : en:01:30:57.158
01:35:15.376 : en:01:35:15.376
01:39:45.979 : en:01:39:45.979
01:44:18.001 : en:01:44:18.001
01:48:21.953 : en:01:48:21.953
01:54:02.710 : en:01:54:02.710
01:56:07.501 : en:01:56:07.501
02:00:26.176 : en:02:00:26.176

Название: Шерлок Холмс: Игра теней / Sherlock Holmes: A Game of Shadows
Оригинальное название: Шерлок Холмс: Игра теней / Sherlock Holmes: A Game of Shadows
Год выпуска: 2011
Страна: США
Жанр: боевик, триллер, криминал, детектив, приключения
Продолжительность: 02:08:44
Перевод: Дубляж
Субтитры:Русские (Форсированные), русские (Полные), английские (полные)
Вид субтитров Вшитые, отключаемые
Главы Есть
Режиссер: Гай Ричи / Guy Ritchie
В ролях: Роберт Дауни мл. (Sherlock Holmes), Джуд Лоу (Dr. John Watson), Нуми Рапас (Madam Simza Heron), Джаред Харрис (Professor James Moriarty), Пол Андерсон (Colonel Sebastian Moran), Стивен Фрай (Mycroft Holmes), Рэйчел МакАдамс (Irene Adler), Келли Райлли (Mary Watson), Джеральдин Джеймс (Mrs. Hudson), Эдди Марсан (Inspector Lestrade), Уильям Хьюстон (Constable Clark), Вольф Калер (Doctor Hoffmanstahl)
Описание:
1891 год. В Вене и Страсбурге проходит серия терактов, организованных анархистами или националистами, а по всей Европе происходят таинственные убийства. Шерлок Холмс считает, что за всем этим стоит профессор Джеймс Мориарти - математический гений, автор знаменитых лекций и трудов.
Рейтинг
kinopoisk.ru: 7.915 (129 494)
imdb.com: 7.50 (253 120)
MPAA: PG-13 - Детям до 13 лет просмотр не желателен
Автор рипа:Tiberiumsun69

Качество: BDRip 720p / 60 FPS
Формат: MKV
Видео кодек: AVC
Аудио кодек:AC3
Видео: AVC, 1280x536, 5202 kbps, 59,940 fps
Аудио №1: русский / AC3 / 5.1 / 48 kHz / 448 kbps / 16 bit |Дубляж|
Аудио №2: английский / AC3 / 5.1 / 48 kHz / 640 kbps / 16 bit

General
Unique ID : 216974380706390444208768201407899404118 (0xA33BBEE5FB21E091821C9F80768C8756)
Complete name : A:\720p 60fps\Шерлок Холмс 720p 60fps\Шерлок Холмс 2 720p 60fps.mkv
Format : Matroska
Format version : Version 4 / Version 2
File size : 5.77 GiB
Duration : 2h 8mn
Overall bit rate : 6 418 Kbps
Encoded date : UTC 2014-09-01 21:43:48
Writing application : mkvmerge v6.9.1 ('Blue Panther') 64bit built on Apr 18 2014 18:23:38
Writing library : libebml v1.3.0 + libmatroska v1.4.1

Video
ID : 1
Format : AVC
Format/Info : Advanced Video Codec
Format profile : High@L4.1
Format settings, CABAC : Yes
Format settings, ReFrames : 4 frames
Codec ID : V_MPEG4/ISO/AVC
Duration : 2h 8mn
Bit rate : 5 203 Kbps
Width : 1 280 pixels
Height : 536 pixels
Display aspect ratio : 2.40:1
Frame rate : 59.940 fps
Color space : YUV
Chroma subsampling : 4:2:0
Bit depth : 8 bits
Scan type : Progressive
Bits/(Pixel*Frame) : 0.127
Stream size : 4.68 GiB (81%)
Writing library : x264 core 133 r2334 a3ac64b
Encoding settings : cabac=1 / ref=4 / deblock=1:-1:-1 / analyse=0x3:0 / me=umh / subme=9 / psy=1 / psy_rd=1.00:0.10 / mixed_ref=1 / me_range=42 / chroma_me=0 / trellis=2 / 8x8dct=1 / cqm=0 / deadzone=21,11 / fast_pskip=0 / chroma_qp_offset=-3 / threads=12 / lookahead_threads=1 / sliced_threads=0 / nr=0 / decimate=0 / interlaced=0 / bluray_compat=0 / constrained_intra=0 / bframes=5 / b_pyramid=2 / b_adapt=2 / b_bias=0 / direct=1 / weightb=1 / open_gop=0 / weightp=2 / keyint=594 / keyint_min=59 / scenecut=40 / intra_refresh=0 / rc=crf / mbtree=0 / crf=15.0 / qcomp=0.60 / qpmin=0 / qpmax=69 / qpstep=4 / ip_ratio=1.40 / pb_ratio=1.30 / aq=0
Language : English
Default : Yes
Forced : No

Audio #1
ID : 2
Format : AC-3
Format/Info : Audio Coding 3
Mode extension : CM (complete main)
Codec ID : A_AC3
Duration : 2h 8mn
Bit rate mode : Constant
Bit rate : 448 Kbps
Channel(s) : 6 channels
Channel positions : Front: L C R, Side: L R, LFE
Sampling rate : 48.0 KHz
Bit depth : 16 bits
Compression mode : Lossy
Stream size : 413 MiB (7%)
Title : Дубляж
Language : Russian
Default : Yes
Forced : No

Audio #2
ID : 3
Format : AC-3
Format/Info : Audio Coding 3
Mode extension : CM (complete main)
Codec ID : A_AC3
Duration : 2h 8mn
Bit rate mode : Constant
Bit rate : 640 Kbps
Channel(s) : 6 channels
Channel positions : Front: L C R, Side: L R, LFE
Sampling rate : 48.0 KHz
Bit depth : 16 bits
Compression mode : Lossy
Stream size : 589 MiB (10%)
Title : Оригинал
Language : English
Default : No
Forced : No

Text #1
ID : 4
Format : UTF-8
Codec ID : S_TEXT/UTF8
Codec ID/Info : UTF-8 Plain Text
Title : Форсированные
Language : Russian
Default : Yes
Forced : No

Text #2
ID : 5
Format : UTF-8
Codec ID : S_TEXT/UTF8
Codec ID/Info : UTF-8 Plain Text
Title : Полные
Language : Russian
Default : No
Forced : No

Text #3
ID : 6
Format : UTF-8
Codec ID : S_TEXT/UTF8
Codec ID/Info : UTF-8 Plain Text
Title : Полные
Language : English
Default : No
Forced : No

Menu
00:00:00.000 : en:00:00:00.000
00:05:35.418 : en:00:05:35.418
00:12:10.521 : en:00:12:10.521
00:23:27.364 : en:00:23:27.364
00:27:56.425 : en:00:27:56.425
00:32:11.221 : en:00:32:11.221
00:38:03.698 : en:00:38:03.698
00:44:20.283 : en:00:44:20.283
00:48:40.876 : en:00:48:40.876
00:56:19.668 : en:00:56:19.668
01:01:16.673 : en:01:01:16.673
01:07:35.093 : en:01:07:35.093
01:15:23.436 : en:01:15:23.436
01:19:58.836 : en:01:19:58.836
01:26:51.832 : en:01:26:51.832
01:31:27.107 : en:01:31:27.107
01:39:32.717 : en:01:39:32.717
01:45:32.701 : en:01:45:32.701
01:53:45.652 : en:01:53:45.652
02:02:56.160 : en:02:02:56.160
Просьба к заливающим на другие сайты "Подписывайте пожалуйста автора рипа Tiberiumsun69"Авторская группа в ВК
pb.wtf



Скачать Шерлок Холмс: Дилогия через торрент http://i.imgur.com/7Z6CNqV.png Скачать фильм Шерлок Холмс: Дилогия через торрент бесплантно в хорошем качестве Описание: Величайший в истории сыщик Шерлок Холмс вместе со своим верным соратником Ватсоном вступают в схватку, требующую нешуточной ... 9.9 10 25
Info! Золотая раздача, скачанное не засчитывается.
Торрент: Зарегистрирован [2014-09-04 10:59] · скачан: 717 раз
Статус: √ проверено
Размер: 12.94 GB
Как cкачать? Как скачать Шерлок Холмс: Дилогия через торрент | qTorrent

% Раздел Тема Автор DL S | L
Сборники и Сиквелы (48-60 fps) [ 27.15 GB ] Шерлок Холмс: Дилогия / Sherlock Holmes: Dilogy [2009-2011 Германия BDRip 1080p / 60 FPS] Tiberiumsun69 Скачать
1 | 0
Сборники (HD Video) [ 75 GB ] Шерлок Холмс: Дилогия / Sherlock Holmes: Dilogy [2009 2011 Германия Blu-ray 1080p] CEE Зайчина Скачать
1 | 0
Фильмы [HD 720p, 1080p] (Хороший звук DUB, MVO) [ 15.52 GB ] Шерлок Холмс: Дилогия / Sherlock Holmes: Dilogy [2009 2011 BDRip 1080p + Оригинал] Newton5 Скачать
1 | 0
Сборники на DVD и Сиквелы [DVDrip, WEB-DLRip, HDrip, BDRip] [ 4.35 GB ] Шерлок Холмс: Дилогия / Sherlock Holmes: Dilogy [2009 2011 HDRip-AVC] DUB / от R.G. nICE Films Phoenix Скачать
2 | 1


Последний раз редактировалось: Tiberiumsun69 (2018-02-07 08:15), всего редактировалось 1 раз


>> Регистрируемся здесь <<






Отзывы и комментарии о схеме читаем и пишем здесь: ---> Отзывы и комментарии о схеме

Новые благодарочки в телеграм довольных пользователей:
скриншот   скриншот   скриншот   скриншот   скриншот

16-10-2016 16:26 Шерлок Холмс: Дилогия Скачать торрент  

Большое спасибо за отличное качество.pb.wtf



    Дорогой пользователь! Огромная просьба, поблагодарите релизера, оцените раздачу и оставьте свои комментарий, если Вы скачали Шерлок Холмс: Дилогия через торрент бесплатно! Внесите свою лепту в развитие PiratBit!
    Комментировать посты могут только пользователи прошедшие не сложную регистрацию
    Показать сообщения:    

    Шерлок Холмс: Дилогия через торрент
    Скачать бесплатно Шерлок Холмс: Дилогия
    Шерлок Холмс: Дилогия скачать торрент
    Шерлок Холмс: Дилогия смотреть онлайн
    Cкачать фильм Шерлок Холмс: Дилогия бесплатно
    Шерлок Холмс: Дилогия скачать торрент в хорошем качестве
    Шерлок Холмс: Дилогия смотреть онлайн бесплатно в хорошем качестве


    Вы не можете начинать темы
    Вы не можете отвечать на сообщения
    Вы не можете редактировать свои сообщения
    Вы не можете удалять свои сообщения
    Вы не можете голосовать в опросах
    Вы не можете прикреплять файлы к сообщениям
    Вы можете скачивать файлы