Ссылка на приватное зеркало нашего сайта всего за 1$. Внимание количество ограничено!!!

2 сезон

iTunes

1 сезон

1

2 сезон

2 сезон

iTunes

1 сезон

RePack

30

Новинка

ВАЖНО

ИГРА 18+

pack

RePack

MK11
pack

Забери бонус

RePack

jed

!!Акция!!

Alien_Rage

RePack

fifa19

RePack

Assassins Creed: Odyssey

RePack

NEED FOR SPEED™ PAYBACK

4 сезон

9 сезон

Бесстыжие 9 сезон

Все сериалы

все сериалы на PB.wtf

RePack

FAR CRY 5
  

Повстанцы / Rebels (Luke Hamill / Kinky Angels (Bel Ami)) [2014 г., Bareback, Twinks, Uniform, Oral/Anal Sexs, Cumshot, Masturbate, Big Cocks, Big Balls, DVDRip, Оригинал] pb.wtf

Повстанцы через торрент pb.wtf

Размер: 1.76 GB | Добавлен: 6 лет 2 мес. назад | Торрент скачан:405 раз
Скачать  

04-09-2014 11:12 Повстанцы Скачать торрент  

Повстанцы / Rebels
Год выпуска: 2014
Страна: США
Жанр: Bareback, Twinks, Uniform, Oral/Anal Sexs, Cumshot, Masturbate, Big Cocks, Big Balls
Продолжительность: 01:39:01
Перевод: Оригинал

Режиссер: Luke Hamill / Kinky Angels (Bel Ami)

В ролях: Jack Harrer, Kevin Warhol, Andre Boleyn, Adam Archuleta, Boris Beckham, Jaco Van Sant, Claude Sorel, Jim Kerouac

Описание: Истинные мятежники всегда знают, кто они. И что они хотят!

Качество: DVDRip
Формат: MP4
Видео кодек: H.263
Аудио кодек: AAC
Видео: 2395 Кбит/сек, 728х410 (16:9) ,в 29,970 кадров/сек,(H.263) , MPEG-4 Visual
Аудио#1: 144 Кбит/сек,( 132 Кбит/сек ) 48,0 КГц, 2 канала, AAC (LC)






Общее
Полное имя : D:\torrent\Rebels.mp4
Формат : MPEG-4
Профиль формата : Base Media
Идентификатор кодека : isom
Размер файла : 1,76 Гбайт
Продолжительность : 1 ч. 39 м.
Режим общего битрейта : Переменный
Общий поток : 2542 Кбит/сек
Дата кодирования : UTC 2014-08-27 11:04:24
Дата пометки : UTC 2014-08-27 11:04:24

Видео
Идентификатор : 1
Формат : MPEG-4 Visual
Профиль формата : Simple@L1
Параметр BVOP формата : Нет
Параметр QPel формата : Нет
Параметр GMC формата : Без точки перехода
Параметр матрицы формата : Default (H.263)
Идентификатор кодека : 20
Продолжительность : 1 ч. 39 м.
Вид битрейта : Переменный
Битрейт : 2395 Кбит/сек
Максимальный битрейт : 5233 Кбит/сек
Ширина : 728 пикселей
Высота : 410 пикселей
Соотношение сторон : 16:9
Режим частоты кадров : Постоянный
Частота кадров : 29,970 кадров/сек
Цветовое пространство : YUV
Субдискретизация насыщенности : 4:2:0
Битовая глубина : 8 бит
Тип развёртки : Прогрессивная
Метод сжатия : С потерями
Бит/(Пиксели*Кадры) : 0.268
Размер потока : 1,66 Гбайт (94%)
Библиотека кодирования : Lavc53.8.0
Дата кодирования : UTC 2014-08-27 11:03:36
Дата пометки : UTC 2014-08-27 11:12:37

Аудио
Идентификатор : 2
Формат : AAC
Формат/Информация : Advanced Audio Codec
Профиль формата : LC
Идентификатор кодека : 40
Продолжительность : 1 ч. 39 м.
Вид битрейта : Переменный
Битрейт : 144 Кбит/сек
Номинальный битрейт : 132 Кбит/сек
Максимальный битрейт : 162 Кбит/сек
Каналы : 2 канала
Расположение каналов : Front: L R
Частота : 48,0 КГц
Метод сжатия : С потерями
Размер потока : 102 Мбайт (6%)
Дата кодирования : UTC 2014-08-27 11:05:11
Дата пометки : UTC 2014-08-27 11:12:37

pb.wtf



pack Скачать Повстанцы через торрент http://pic.kartinco.top/images/7/ij9e7.jpg Скачать фильм Повстанцы через торрент бесплантно в хорошем качестве Описание: Истинные мятежники всегда знают, кто они. И что они ... 8.1 10 14
Торрент: Зарегистрирован [2014-09-04 11:12] · скачан: 405 раз
Статус: √ проверено
Размер: 1.76 GB
Как cкачать? Как скачать Повстанцы через торрент | qTorrent

% Раздел Тема Автор DL S | L
Фильмы 2019-2020 [DVDrip, WEB-DLRip, HDrip] (DUB, MVO) [ 1.42 GB ] Мятежник / Повстанцы / The Rebels [2019 BDRip] - Twi7ter Скачать
14 | 0
Фильмы 2019-2020 [DVDrip, WEB-DLRip, HDrip] (DUB, MVO) [ 2.14 GB ] Мятежник / Повстанцы / The Rebels [2019 BDRip-AVC] bober100 Скачать
4 | 0
T Фильмы [HD 720p, 1080p] (Хороший звук DUB, MVO) [ 5.2 GB ] Мятежник / Повстанцы / The Rebels [2019 BDRip 1080p] bober100 Скачать
2 | 0
Фильмы 2019-2020 [DVDrip, WEB-DLRip, HDrip] (DUB, MVO) [ 1.47 GB ] Мятежник / Повстанцы / The Rebels [2019 BDRip] bober100 Скачать
1 | 0
Мультсериалы [ 17.61 GB ] Звёздные войны: Повстанцы / Star Wars Rebels / Сезон: 1-4 из 4 / Серии: 1-72 из 72 [2014-2018 WEB-DLRip] MVO LostFilm qwerty1234 Скачать
2 | 0
Порно фильмы с сюжетом [ 898 MB ] Изнасилования на Войне / Повстанцы / Stupri Di Guerra / Les Rebelles [1994 Feature Foreign Straight Oral Classic DVDRip 480p] sheker187 Скачать
1 | 0
Мультсериалы [ 20.52 GB ] Звёздные войны: Повстанцы / Star Wars Rebels / Сезон: 3 / Серия 1-21 из 21 [2016 мультфильм WEB-DLRip 1080p] MVO LostFilm MicroCharmelle Скачать
1 | 0

28-11-2019 20:33  

Отключить всю рекламу на сайте

    Дорогой пользователь! Огромная просьба, поблагодарите релизера, оцените раздачу и оставьте свои комментарий, если Вы скачали Повстанцы через торрент бесплатно! Внесите свою лепту в развитие PiratBit!
    Комментировать посты могут только пользователи прошедшие не сложную регистрацию
    Показать сообщения:    

    Повстанцы через торрент
    Скачать бесплатно Повстанцы
    Повстанцы скачать торрент
    Повстанцы смотреть онлайн
    Cкачать фильм Повстанцы бесплатно
    Повстанцы скачать торрент в хорошем качестве
    Повстанцы смотреть онлайн бесплатно в хорошем качестве


    Вы не можете начинать темы
    Вы не можете отвечать на сообщения
    Вы не можете редактировать свои сообщения
    Вы не можете удалять свои сообщения
    Вы не можете голосовать в опросах
    Вы не можете прикреплять файлы к сообщениям
    Вы можете скачивать файлы