Ссылка на приватное зеркало нашего сайта всего за 1$. Внимание количество ограничено!!!

2 сезон

iTunes

1 сезон

1

2 сезон

2 сезон

iTunes

1 сезон

RePack

30

Ultimate

ВАЖНО

ИГРА 18+

pack

RePack

MK11
pack

Забери бонус

RePack

jed

!!Акция!!

Alien_Rage

RePack

fifa19

RePack

Assassins Creed: Odyssey

RePack

NEED FOR SPEED™ PAYBACK

4 сезон

9 сезон

Бесстыжие 9 сезон

Все сериалы

все сериалы на PB.wtf

RePack

FAR CRY 5
  

Безумный Макс: Трилогия / Mad Max: Trilogy [1979-1985, Австралия, боевик, триллер, приключения, BDRip 720p / 60 FPS,Дубляж] pb.wtf

Безумный Макс: Трилогия через торрент pb.wtf

Размер: 20.43 GB | Добавлен: 6 лет 2 мес. назад | Торрент скачан:554 раза
Скачать  

04-09-2014 12:55 Безумный Макс: Трилогия Скачать торрент  

Перед скачиванием обязательно проверьте Сэмплы на своем оборудовании.
Raven за помощ при создании релиза и обложек

Название: Безумный Макс / Mad Max
Оригинальное название: Безумный Макс / Mad Max
Год выпуска: 1979
Страна: Австралия
Жанр: боевик, триллер, приключения
Продолжительность: 01:33:11
Перевод: Дубляж
Субтитры:Русские (Полные), английские (полные)
Вид субтитров Вшитые, отключаемые
Главы Есть
Режиссер: Джордж Миллер / George Miller
В ролях: Мэл Гибсон (Max), Джоэнн Сэмюэл (Jessie), Хью Кияс-Бёрн (Toecutter), Стив Бисли (Jim Goose), Тим Барнс (Johnny the Boy), Роджер Уорд (Fifi), Лиза Альденховен (Nurse), Дэвид Брэкс (Mudguts), Бертран Кадар (Clunk), Дэвид Камерон (Underground Mechanic), Робина Чеффи (Singer), Стивен Кларк (Sarse)
Описание:
На планете уже 24-й век, после глобальной катастрофы, все города были разрушены, и люди живут вдоль дорог. Люди озверели, так как нет нормального правительства и полиции, всюду царит хаос и беспредел. На трассах хозяйничают злобные мотоциклисты, которые готовы ради собственной наживы убить любого. Только один полицейский по имени Макс посмел им перечить, и в итоге был убит его напарник, а ему самому с трудом удалось спастись. В такой ситуации Максу нужно побеспокоиться не только о себе, но и о своей семье. Сможет ли он защитить близких ему людей?
Рейтинг
kinopoisk.ru: 7.107 (13 714)
imdb.com: 7.00 (101 759)
MPAA: R - Лицам до 17 лет обязательно присутствие взрослого
Автор рипа:Tiberiumsun69

Качество: BDRip 720p / 60 FPS
Формат: MKV
Видео кодек: AVC
Аудио кодек:AC3
Видео: AVC, 1280x544), 7423 kbps, 59,940 fps
Аудио №1: русский / AC3 / 5.1 / 48 kHz / 448 kbps / 16 bit |Дубляж Мост-видео|
Аудио №2: русский / AC3 / 5.1 / 48 kHz / 448 kbps / 16 bit |Многоголосный, закадровый Киномания|
Аудио №3: русский / AC3 / 2.0 / 48 kHz / 192 kbps / 16 bit |Многоголосный закадровый Варус-видео|
Аудио №4: английский / AC3 / 5.1 / 48 kHz / 640 kbps / 16 bit

General
Unique ID : 239756345499219615203667290127033184396 (0xB45F647BE34FD234817647CE899C308C)
Complete name : A:\720p 60fps\Безумный Макс 720p 60fps\Безумный Макс 1 720p 60fps.mkv
Format : Matroska
Format version : Version 4 / Version 2
File size : 6.08 GiB
Duration : 1h 33mn
Overall bit rate : 9 337 Kbps
Encoded date : UTC 2014-09-01 19:12:11
Writing application : mkvmerge v6.9.1 ('Blue Panther') 64bit built on Apr 18 2014 18:23:38
Writing library : libebml v1.3.0 + libmatroska v1.4.1
Attachment : Yes / Yes

Video
ID : 1
Format : AVC
Format/Info : Advanced Video Codec
Format profile : High@L4.1
Format settings, CABAC : Yes
Format settings, ReFrames : 9 frames
Codec ID : V_MPEG4/ISO/AVC
Duration : 1h 33mn
Bit rate : 7 424 Kbps
Width : 1 280 pixels
Height : 544 pixels
Display aspect ratio : 2.35:1
Frame rate : 59.940 fps
Color space : YUV
Chroma subsampling : 4:2:0
Bit depth : 8 bits
Scan type : Progressive
Bits/(Pixel*Frame) : 0.178
Stream size : 4.83 GiB (80%)
Writing library : x264 core 133 r2334 a3ac64b
Encoding settings : cabac=1 / ref=9 / deblock=1:-1:-1 / analyse=0x3:0 / me=umh / subme=9 / psy=1 / psy_rd=1.00:0.10 / mixed_ref=1 / me_range=42 / chroma_me=0 / trellis=2 / 8x8dct=1 / cqm=0 / deadzone=21,11 / fast_pskip=0 / chroma_qp_offset=-3 / threads=12 / lookahead_threads=1 / sliced_threads=0 / nr=0 / decimate=0 / interlaced=0 / bluray_compat=0 / constrained_intra=0 / bframes=6 / b_pyramid=2 / b_adapt=2 / b_bias=0 / direct=1 / weightb=1 / open_gop=0 / weightp=2 / keyint=594 / keyint_min=59 / scenecut=40 / intra_refresh=0 / rc=crf / mbtree=0 / crf=15.0 / qcomp=0.60 / qpmin=0 / qpmax=69 / qpstep=4 / ip_ratio=1.40 / pb_ratio=1.30 / aq=0
Language : English
Default : Yes
Forced : No

Audio #1
ID : 2
Format : AC-3
Format/Info : Audio Coding 3
Mode extension : CM (complete main)
Codec ID : A_AC3
Duration : 1h 33mn
Bit rate mode : Constant
Bit rate : 448 Kbps
Channel(s) : 6 channels
Channel positions : Front: L C R, Side: L R, LFE
Sampling rate : 48.0 KHz
Bit depth : 16 bits
Compression mode : Lossy
Stream size : 299 MiB (5%)
Title : Дубляж Мост-видео
Language : Russian
Default : Yes
Forced : No

Audio #2
ID : 3
Format : AC-3
Format/Info : Audio Coding 3
Mode extension : CM (complete main)
Codec ID : A_AC3
Duration : 1h 33mn
Bit rate mode : Constant
Bit rate : 448 Kbps
Channel(s) : 6 channels
Channel positions : Front: L C R, Side: L R, LFE
Sampling rate : 48.0 KHz
Bit depth : 16 bits
Compression mode : Lossy
Stream size : 299 MiB (5%)
Title : Многоголосный закадровый Киномания
Language : Russian
Default : No
Forced : No

Audio #3
ID : 4
Format : AC-3
Format/Info : Audio Coding 3
Mode extension : CM (complete main)
Codec ID : A_AC3
Duration : 1h 33mn
Bit rate mode : Constant
Bit rate : 192 Kbps
Channel(s) : 2 channels
Channel positions : Front: L R
Sampling rate : 48.0 KHz
Bit depth : 16 bits
Compression mode : Lossy
Stream size : 128 MiB (2%)
Title : Многоголосный закадровый Варус-видео
Language : Russian
Default : No
Forced : No

Audio #4
ID : 5
Format : AC-3
Format/Info : Audio Coding 3
Mode extension : CM (complete main)
Codec ID : A_AC3
Duration : 1h 33mn
Bit rate mode : Constant
Bit rate : 640 Kbps
Channel(s) : 6 channels
Channel positions : Front: L C R, Side: L R, LFE
Sampling rate : 48.0 KHz
Bit depth : 16 bits
Compression mode : Lossy
Stream size : 427 MiB (7%)
Title : Оригинал
Language : English
Default : No
Forced : No

Text #1
ID : 6
Format : UTF-8
Codec ID : S_TEXT/UTF8
Codec ID/Info : UTF-8 Plain Text
Title : Полные
Language : Russian
Default : No
Forced : No

Text #2
ID : 7
Format : UTF-8
Codec ID : S_TEXT/UTF8
Codec ID/Info : UTF-8 Plain Text
Title : Полные
Language : English
Default : No
Forced : No

Menu
00:00:00.000 : en:1. Main Title
00:01:00.518 : en:2. The Night Rider
00:05:35.251 : en:3. Goose
00:09:16.514 : en:4. Max
00:12:21.449 : en:5. Crazy Bout You
00:15:34.808 : en:6. Heroes
00:19:19.157 : en:7. New Enemies
00:21:46.805 : en:8. Old Friend
00:24:42.439 : en:9. Terrorized
00:26:59.743 : en:10. Link
00:30:33.665 : en:11. No Contest
00:36:29.437 : en:12. Big Mouth
00:38:53.581 : en:13. Goose's Gander
00:40:15.871 : en:14. Accident
00:43:02.538 : en:15. Ambush
00:46:52.810 : en:16. Not Goose
00:48:25.819 : en:17. No Sense
00:50:20.225 : en:18. Through
00:53:02.971 : en:19. Holiday
00:55:39.002 : en:20. Getting an Ice Cream
00:59:29.607 : en:21. Pursuit
01:02:05.012 : en:22. The Beach
01:05:49.695 : en:23. Unquiet Woods
01:08:25.810 : en:24. Sprog!
01:12:27.051 : en:25. Severed Family
01:14:43.145 : en:26. Revenge
01:17:49.539 : en:27. One by One
01:20:32.369 : en:28. Man Down
01:24:55.632 : en:29. Head-On
01:26:27.557 : en:30. Go!
01:29:59.060 : en:31. Justice
01:30:43.688 : en:32. End Credits

Название: Безумный Макс 2: Воин дороги / Mad Max 2
Оригинальное название: Безумный Макс 2: Воин дороги / Mad Max 2
Год выпуска: 1981
Страна: Австралия
Жанр: боевик, триллер, приключения
Продолжительность: 01:35:30
Перевод: Дубляж
Субтитры:Русские (Полные), английские (полные)
Вид субтитров Вшитые, отключаемые
Главы Есть
Режиссер: Джордж Миллер / George Miller
В ролях: Мэл Гибсон (Max), Брюс Спенс (The Gyro Captain), Майкл Престон (Pappagallo), Макс Фиппс (The Toadie), Вернон Уэллс (Wez), Кьелль Нилссон (The Humungus), Эмиль Минти (The Feral Kid), Вирджиния Хей (Warrior Woman), Уильям Заппа (Zetta), Арки Уайтели (The Captain's Girl), Стив Дж. Спирс (Mechanic), Сид Хейлен (Curmudgeon)
Описание:
Катастрофа пострашнее ядерной войны постигла нашу цивилизацию. Страшный энергетический кризис парализовал города, пути сообщения - одним словом, все. За топливо теперь дерутся любыми средствами. Потому что там, где бензин, - там жизнь... Одинокий водитель Макс как раз и бороздит пустоши далекой Австралии в поисках горючего. Повсюду брошенные жилища, машины, разный скарб. Наконец Макс находит поселение, превращенное в укрепленный лагерь со складами горючего. Исхудавшие, измученные люди как могут охраняют то, что им принадлежит. И вот, в довершение всех бед, на лагерь нападают враги, свирепые панки и байкеры под предводительством некоего Гумунгуса, садиста и душегуба. И тогда Макс вступает в схватку...
Рейтинг
kinopoisk.ru: 7.635 (13 589)
imdb.com: 7.60 (91 893)
MPAA: R - Лицам до 17 лет обязательно присутствие взрослого
Автор рипа:Tiberiumsun69

Качество: BDRip 720p / 60 FPS
Формат: MKV
Видео кодек: AVC
Аудио кодек:AC3
Видео: AVC, 1280x536 (2.40:1), 7510 kbps, 59,940 fps, 0,183 bpp
Аудио №1: русский / AC3 / 5.1 / 48 kHz / 384 kbps / 16 bit |Дубляж|
Аудио №2: русский / AC3 / 5.1 / 48 kHz / 384 kbps / 16 bit |Многоголосный, закадровый Киномания|
Аудио №3: английский / AC3 / 5.1 / 48 kHz / 640 kbps / 16 bit

General
Unique ID : 182838141686942684521661693434019842439 (0x898D585F5C8683BAA126C6B800FA0987)
Complete name : A:\720p 60fps\Безумный Макс 720p 60fps\Безумный Макс 2 720p 60fps.mkv
Format : Matroska
Format version : Version 4 / Version 2
File size : 6.07 GiB
Duration : 1h 35mn
Overall bit rate : 9 099 Kbps
Encoded date : UTC 2014-09-01 19:00:26
Writing application : mkvmerge v6.9.1 ('Blue Panther') 64bit built on Apr 18 2014 18:23:38
Writing library : libebml v1.3.0 + libmatroska v1.4.1

Video
ID : 1
Format : AVC
Format/Info : Advanced Video Codec
Format profile : High@L4.1
Format settings, CABAC : Yes
Format settings, ReFrames : 9 frames
Codec ID : V_MPEG4/ISO/AVC
Duration : 1h 35mn
Bit rate : 7 510 Kbps
Width : 1 280 pixels
Height : 536 pixels
Display aspect ratio : 2.40:1
Frame rate : 59.940 fps
Color space : YUV
Chroma subsampling : 4:2:0
Bit depth : 8 bits
Scan type : Progressive
Bits/(Pixel*Frame) : 0.183
Stream size : 5.01 GiB (83%)
Writing library : x264 core 133 r2334 a3ac64b
Encoding settings : cabac=1 / ref=9 / deblock=1:-1:-1 / analyse=0x3:0 / me=umh / subme=9 / psy=1 / psy_rd=1.00:0.10 / mixed_ref=1 / me_range=42 / chroma_me=0 / trellis=2 / 8x8dct=1 / cqm=0 / deadzone=21,11 / fast_pskip=0 / chroma_qp_offset=-3 / threads=12 / lookahead_threads=1 / sliced_threads=0 / nr=0 / decimate=0 / interlaced=0 / bluray_compat=0 / constrained_intra=0 / bframes=6 / b_pyramid=2 / b_adapt=2 / b_bias=0 / direct=1 / weightb=1 / open_gop=0 / weightp=2 / keyint=594 / keyint_min=59 / scenecut=40 / intra_refresh=0 / rc=crf / mbtree=0 / crf=15.0 / qcomp=0.60 / qpmin=0 / qpmax=69 / qpstep=4 / ip_ratio=1.40 / pb_ratio=1.30 / aq=0
Language : English
Default : Yes
Forced : No

Audio #1
ID : 2
Format : AC-3
Format/Info : Audio Coding 3
Mode extension : CM (complete main)
Codec ID : A_AC3
Duration : 1h 35mn
Bit rate mode : Constant
Bit rate : 384 Kbps
Channel(s) : 6 channels
Channel positions : Front: L C R, Side: L R, LFE
Sampling rate : 48.0 KHz
Bit depth : 16 bits
Compression mode : Lossy
Stream size : 262 MiB (4%)
Title : Дубляж
Language : Russian
Default : Yes
Forced : No

Audio #2
ID : 3
Format : AC-3
Format/Info : Audio Coding 3
Mode extension : CM (complete main)
Codec ID : A_AC3
Duration : 1h 35mn
Bit rate mode : Constant
Bit rate : 384 Kbps
Channel(s) : 6 channels
Channel positions : Front: L C R, Side: L R, LFE
Sampling rate : 48.0 KHz
Bit depth : 16 bits
Compression mode : Lossy
Stream size : 262 MiB (4%)
Title : Многоголосный закадровый Киномания
Language : Russian
Default : No
Forced : No

Audio #3
ID : 4
Format : AC-3
Format/Info : Audio Coding 3
Mode extension : CM (complete main)
Codec ID : A_AC3
Duration : 1h 35mn
Bit rate mode : Constant
Bit rate : 640 Kbps
Channel(s) : 6 channels
Channel positions : Front: L C R, Side: L R, LFE
Sampling rate : 48.0 KHz
Bit depth : 16 bits
Compression mode : Lossy
Stream size : 437 MiB (7%)
Title : Оригинал
Language : English
Default : No
Forced : No

Text #1
ID : 5
Format : UTF-8
Codec ID : S_TEXT/UTF8
Codec ID/Info : UTF-8 Plain Text
Title : Полные
Language : Russian
Default : No
Forced : No

Text #2
ID : 6
Format : UTF-8
Codec ID : S_TEXT/UTF8
Codec ID/Info : UTF-8 Plain Text
Title : Полные
Language : English
Default : No
Forced : No

Menu
00:00:00.000 : en:Credits
00:01:28.087 : en:A Time of Chaos
00:04:18.633 : en:Double Trouble
00:05:52.810 : en:Loud Scream, Soft Music
00:09:10.841 : en:The Gyro Captain
00:13:31.060 : en:The Refinery From Above
00:16:10.761 : en:Dinner for Two
00:19:08.522 : en:Wez's Arrows of Death
00:23:38.667 : en:A Rescue - in Vain
00:28:24.828 : en:Greetings From the Humungus
00:35:40.221 : en:Weighing Options; Happy Camper
00:37:48.766 : en:Max Makes a Deal
00:39:42.422 : en:Under Cover of Darkness
00:43:01.036 : en:Recovering the Big Rig
00:47:46.989 : en:Hot Pursuit
00:51:04.895 : en:Defending the Compound
00:53:36.796 : en:Planning Departures
00:56:22.295 : en:"Nobody Gets Out of Here Alive."
00:59:44.831 : en:"You're a Scavenger, Max."
01:03:19.587 : en:Max Makes His Run
01:06:21.936 : en:The Booby Trap
01:08:10.920 : en:Retrieved
01:11:41.880 : en:"I'm the Best Chance You've Got."
01:13:33.242 : en:The Exodus Begins
01:16:18.156 : en:Boom!
01:17:23.555 : en:Attacked All Around
01:20:24.862 : en:Casualties of Battle
01:23:17.659 : en:Chaos Around the Driver's Seat
01:27:27.325 : en:Unloading an Unwanted Passenger
01:29:54.722 : en:The Cargo Revealed
01:31:30.694 : en:The Last of the Road Warrior
01:32:33.297 : en:End Credits

Название: Безумный Макс 3: Под куполом грома / Mad Max Beyond Thunderdome
Оригинальное название: Безумный Макс 3: Под куполом грома / Mad Max Beyond Thunderdome
Год выпуска: 1985
Страна: Австралия
Жанр: боевик, триллер, приключения
Продолжительность: 01:46:59
Перевод: Дубляж
Субтитры:Русские (Полные), английские (полные)
Вид субтитров Вшитые, отключаемые
Главы Есть
Режиссер: Джордж Миллер / George Miller, Джордж Огилве / George Ogilvie
В ролях: Мэл Гибсон (Mad Max Rockatansky), Брюс Спенс (Jedediah the Pilot), Адам Кокберн (Jedediah Jr.), Тина Тёрнер (Aunty Entity), Фрэнк Тринг (The Collector), Анджело Росситто (The Master), Пол Ларссон (The Blaster), Энгри Андерсон (Ironbar), Роберт Грубб (Pig Killer), Джордж Спартелс (Blackfinger), Эдвин Ходжмен (Dr. Dealgood), Боб Хорнери (Waterseller)
Описание:
В городе Батертауне правит коварная властительница Энтити. Для укрепления своей власти она пытается использовать Макса, непревзойденного мастера дорожных схваток. Но теперь завораживающую череду автомобильных разборок под испепеляющим солнцем начинают сменять невероятные рукопашные бои.
Рейтинг
kinopoisk.ru: 6.522 (6802)
imdb.com: 6.20 (71 479)
MPAA: PG-13 - Детям до 13 лет просмотр не желателен
Автор рипа:Tiberiumsun69

Качество: BDRip 720p / 60 FPS
Формат: MKV
Видео кодек: AVC
Аудио кодек:AC3
Видео: AVC, 1280x536, 9582 kbps, 59,940 fps
Аудио №1: русский / AC3 / 5.1 / 48 kHz / 640 kbps / 16 bit |Дубляж|
Аудио №2: английский / AC3 / 5.1 / 48 kHz / 640 kbps / 16 bit

General
Unique ID : 216621559181820729526064521435188859674 (0xA2F7CB7443D268538EEB1AFBA9EC931A)
Complete name : A:\720p 60fps\Безумный Макс 720p 60fps\Безумный Макс 3 720p 60fps.mkv
Format : Matroska
Format version : Version 4 / Version 2
File size : 8.28 GiB
Duration : 1h 46mn
Overall bit rate : 11.1 Mbps
Encoded date : UTC 2014-09-01 19:53:23
Writing application : mkvmerge v6.9.1 ('Blue Panther') 64bit built on Apr 18 2014 18:23:38
Writing library : libebml v1.3.0 + libmatroska v1.4.1

Video
ID : 1
Format : AVC
Format/Info : Advanced Video Codec
Format profile : High@L4.1
Format settings, CABAC : Yes
Format settings, ReFrames : 9 frames
Codec ID : V_MPEG4/ISO/AVC
Duration : 1h 46mn
Bit rate : 9 583 Kbps
Width : 1 280 pixels
Height : 536 pixels
Display aspect ratio : 2.40:1
Frame rate : 59.940 fps
Color space : YUV
Chroma subsampling : 4:2:0
Bit depth : 8 bits
Scan type : Progressive
Bits/(Pixel*Frame) : 0.233
Stream size : 7.16 GiB (86%)
Writing library : x264 core 133 r2334 a3ac64b
Encoding settings : cabac=1 / ref=9 / deblock=1:-1:-1 / analyse=0x3:0 / me=umh / subme=9 / psy=1 / psy_rd=1.00:0.10 / mixed_ref=1 / me_range=42 / chroma_me=0 / trellis=2 / 8x8dct=1 / cqm=0 / deadzone=21,11 / fast_pskip=0 / chroma_qp_offset=-3 / threads=12 / lookahead_threads=1 / sliced_threads=0 / nr=0 / decimate=0 / interlaced=0 / bluray_compat=0 / constrained_intra=0 / bframes=6 / b_pyramid=2 / b_adapt=2 / b_bias=0 / direct=1 / weightb=1 / open_gop=0 / weightp=2 / keyint=594 / keyint_min=59 / scenecut=40 / intra_refresh=0 / rc=crf / mbtree=0 / crf=15.0 / qcomp=0.60 / qpmin=0 / qpmax=69 / qpstep=4 / ip_ratio=1.40 / pb_ratio=1.30 / aq=0
Language : English
Default : Yes
Forced : No

Audio #1
ID : 2
Format : AC-3
Format/Info : Audio Coding 3
Mode extension : CM (complete main)
Codec ID : A_AC3
Duration : 1h 46mn
Bit rate mode : Constant
Bit rate : 640 Kbps
Channel(s) : 6 channels
Channel positions : Front: L C R, Side: L R, LFE
Sampling rate : 48.0 KHz
Bit depth : 16 bits
Compression mode : Lossy
Stream size : 490 MiB (6%)
Title : Дубляж
Language : Russian
Default : Yes
Forced : No

Audio #2
ID : 3
Format : AC-3
Format/Info : Audio Coding 3
Mode extension : CM (complete main)
Codec ID : A_AC3
Duration : 1h 46mn
Bit rate mode : Constant
Bit rate : 640 Kbps
Channel(s) : 6 channels
Channel positions : Front: L C R, Side: L R, LFE
Sampling rate : 48.0 KHz
Bit depth : 16 bits
Compression mode : Lossy
Stream size : 490 MiB (6%)
Title : Оригинал
Language : English
Default : No
Forced : No

Text #1
ID : 4
Format : UTF-8
Codec ID : S_TEXT/UTF8
Codec ID/Info : UTF-8 Plain Text
Title : Полные
Language : Russian
Default : No
Forced : No

Text #2
ID : 5
Format : UTF-8
Codec ID : S_TEXT/UTF8
Codec ID/Info : UTF-8 Plain Text
Title : Полные
Language : English
Default : No
Forced : No

Menu
00:00:00.000 : en:Chapter 1
00:09:55.761 : en:Chapter 2
00:20:06.413 : en:Chapter 3
00:30:31.663 : en:Chapter 4
00:40:04.527 : en:Chapter 5
00:50:45.042 : en:Chapter 6
01:02:00.717 : en:Chapter 7
01:11:21.277 : en:Chapter 8
01:20:12.224 : en:Chapter 9
01:30:58.035 : en:Chapter 10
01:42:03.617 : en:Chapter 11
01:46:58.036 : en:Chapter 12
Просьба к заливающим на другие сайты "Подписывайте пожалуйста автора рипа Tiberiumsun69"Авторская группа в ВК
pb.wtf



Скачать Безумный Макс: Трилогия через торрент http://i.imgur.com/1wmaK2Z.png Скачать фильм Безумный Макс: Трилогия через торрент бесплантно в хорошем качестве Описание: На планете уже 24-й век, после глобальной катастрофы, все города были разрушены, и люди живут вдоль дорог. Люди озверели, так как ... 10 10 24
Info! Золотая раздача, скачанное не засчитывается.
Торрент: Зарегистрирован [2014-09-04 12:55] · скачан: 554 раз
Статус: √ проверено
Размер: 20.43 GB
Как cкачать? Как скачать Безумный Макс: Трилогия через торрент | qTorrent

% Раздел Тема Автор DL S | L
Сборники и Сиквелы (48-60 fps) [ 32.72 GB ] Безумный Макс: Трилогия / Mad Max: Trilogy [1979-1985 Австралия BDRip 1080p / 60 FPS] Tiberiumsun69 Скачать
1 | 0
Сборники (HD Video) [ 16.14 GB ] Безумный Макс: Трилогия / Mad Max: Trilogy [197919811985 BDRip ] VintMosina Скачать
1 | 0


Последний раз редактировалось: Tiberiumsun69 (2018-02-07 08:15), всего редактировалось 1 раз

28-11-2019 20:33  

Отключить всю рекламу на сайте

04-09-2014 13:50 Безумный Макс: Трилогия Скачать торрент  

И нахрена такой размер,если есть рипы на полтора гига?Что за дураки будут это качать?pb.wtf



04-09-2014 15:21 Безумный Макс: Трилогия Скачать торрент  

Таргитай писал(а):

И нахрена такой размер,если есть рипы на полтора гига?Что за дураки будут это качать?

Так ведь не все смотрят фильмы на ноутбуках, у некоторых телевизоры дома...pb.wtf



14-09-2014 15:13 Безумный Макс: Трилогия Скачать торрент  

Плюсую. Смотрю на телике 55" )pb.wtf



18-05-2015 17:13 Безумный Макс: Трилогия Скачать торрент  

Таргитай писал(а):

И нахрена такой размер,если есть рипы на полтора гига?Что за дураки будут это качать?

вот мы дураки то... если бы не ты, я даже и не узнал бы о существовании рипов на 1.5 гига. спасибо что подсказал, а то так бы и продолжал смотреть фильмы на 50 дюймовом телике без этих квадратиков.pb.wtf



06-09-2015 08:29 Безумный Макс: Трилогия Скачать торрент  

отличная сборка,встала поверх официальной 10-ки без проблем и теперь все просто летает!pb.wtf



23-11-2015 18:19 Безумный Макс: Трилогия Скачать торрент  

Супер качество! Огромное спасибо, забираю!pb.wtf



    Дорогой пользователь! Огромная просьба, поблагодарите релизера, оцените раздачу и оставьте свои комментарий, если Вы скачали Безумный Макс: Трилогия через торрент бесплатно! Внесите свою лепту в развитие PiratBit!
    Комментировать посты могут только пользователи прошедшие не сложную регистрацию
    Показать сообщения:    

    Безумный Макс: Трилогия через торрент
    Скачать бесплатно Безумный Макс: Трилогия
    Безумный Макс: Трилогия скачать торрент
    Безумный Макс: Трилогия смотреть онлайн
    Cкачать фильм Безумный Макс: Трилогия бесплатно
    Безумный Макс: Трилогия скачать торрент в хорошем качестве
    Безумный Макс: Трилогия смотреть онлайн бесплатно в хорошем качестве


    Вы не можете начинать темы
    Вы не можете отвечать на сообщения
    Вы не можете редактировать свои сообщения
    Вы не можете удалять свои сообщения
    Вы не можете голосовать в опросах
    Вы не можете прикреплять файлы к сообщениям
    Вы можете скачивать файлы