2 сезон

iTunes

MVO

1

2 сезон

iTunes

iTunes

1 сезон

RePack

30

Ultimate

ВАЖНО

ИГРА 18+

pack

RePack

MK11
pack

Легкие деньги

RePack

jed

RePack

fifa19

RePack

RDR2

RePack

NEED FOR SPEED™ PAYBACK

4 сезон

9 сезон

Бесстыжие 9 сезон

Все сериалы

все сериалы на PB.wtf

RePack

FAR CRY 5

Anonymous, доброе утро, мы не успеваем собрать деньги на оплату серверов за декабрь и январь, помогите нам пожалуйста в это трудное время. В качестве благодарности мы отключим Вам всю рекламу на сайте (укажите свой ник в строку Ваше имя)!

×
  
Magnet ссылка

Миллион способов потерять голову / A Million Ways to Die in the West (Сет МакФарлейн) [2014 г., комедия, вестерн, HDRip, Профессиональный многоголосый] FiliZa Studio pb.wtf

Миллион способов потерять голову через торрент pb.wtf

Размер: 1.17 GB | Добавлен: 6 лет 4 мес. назад | Торрент скачан:96 раз
Скачать  

04-09-2014 15:33 Миллион способов потерять голову Скачать торрент  

Миллион способов потерять голову / A Million Ways to Die in the West

Год выпуска: 2014
Страна: США
Жанр: комедия, вестерн
Продолжительность: 01:55:54
Перевод: Профессиональный многоголосый |FiliZa Studio|

Режиссер: Сет МакФарлейн
Продюссер: Джейсон Кларк, Сет МакФарлейн, Скотт Стубер
Сценарий: Сет МакФарлейн, Алек Салкин, Уэллесли Уайлд
Бюджет: $40 000 000
Премьера в мире: 29 мая 2014

IMDB 6.20 (36 609)


В ролях: Сет МакФарлейн, Шарлиз Терон, Аманда Сайфред, Лиам Нисон, Джованни Рибизи, Нил Патрик Харрис, Сара Силверман, Кристофер Хэйген, Уэс Стьюди, Мэтт Кларк, Илья Исаев, Алёна Ивченко, Евгения Ваган, Владимир Антоник, Александр Гаврилин

Описание: Угораздило же влюбиться не в том месте и не в то время. Здесь хамят в ресторанах, о горячей воде слагают легенды, да и с транспортом полный коллапс. Но у таинственной незнакомки отменная фигура, да и стреляет она без промаха. Кто же по своей воле откажется от такой красотки?



Качество: HDRip
Формат: MP4
Видео кодек: AVC
Аудио кодек: AAC LC
Видео: AVC, 800x336 (2.35:1), 23.976 fps, 1 251 Kbps (0.194 bit/pixel)
Аудио: AAC LC, 48.0 KHz, 2 ch, 192 Kbps, VBR
x264 [info]: profile High, level 4.1
x264 [info]: frame I:1890 Avg QP:13.17 size: 70895
x264 [info]: frame P:39689 Avg QP:16.61 size: 15253
x264 [info]: frame B:125159 Avg QP:21.09 size: 2782
x264 [info]: consecutive B-frames: 2.2% 2.5% 6.7% 53.7% 10.4% 15.9% 1.9% 4.5% 1.5% 0.2% 0.1% 0.1% 0.3%
x264 [info]: ref P L0: 53.4% 11.9% 13.3% 6.4% 4.3% 3.9% 2.9% 2.0% 1.8% 0.2% 0.0%
x264 [info]: ref B L0: 79.5% 9.1% 4.9% 2.2% 1.8% 1.3% 0.9% 0.3%
x264 [info]: ref B L1: 93.5% 6.5%
x264 [info]: kb/s:1251.06
Формат : MPEG-4
Профиль формата : Base Media
Идентификатор кодека : isom
Размер файла : 1,17 Гбайт
Продолжительность : 1 ч. 55 м.
Режим общего битрейта : Переменный
Общий поток : 1449 Кбит/сек
Программа кодирования : Lavf53.19.0

Видео
Идентификатор : 1
Формат : AVC
Формат/Информация : Advanced Video Codec
Профиль формата : High@L4.1
Параметр CABAC формата : Да
Параметр ReFrames формата : 9 кадров
Идентификатор кодека : avc1
Идентификатор кодека/Информация : Advanced Video Coding
Продолжительность : 1 ч. 55 м.
Продолжительность оригинала : 1 м. 22 с.
Битрейт : 1251 Кбит/сек
Ширина : 800 пикселей
Высота : 336 пикселей
Соотношение сторон : 2,40:1
Режим частоты кадров : Постоянный
Частота кадров : 23,976 кадра/сек
Цветовое пространство : YUV
Субдискретизация насыщенности : 4:2:0
Битовая глубина : 8 бит
Тип развёртки : Прогрессивная
Бит/(Пиксели*Кадры) : 0.194
Размер потока : 1,01 Гбайт (86%)
Размер потока оригинала : 1,01 Гбайт (86%)
Библиотека кодирования : x264 core 130 r2273 b3065e6
Настройки программы : cabac=1 / ref=9 / deblock=1:-3:-2 / analyse=0x3:0x133 /
me=umh / subme=9 / psy=1 / psy_rd=1.00:0.00 / mixed_ref=1 / me_range=24 / chroma_me=1 /
trellis=2 / 8x8dct=1 / cqm=0 / deadzone=21,11 / fast_pskip=1 / chroma_qp_offset=-2 / threads=3 /
lookahead_threads=1 / sliced_threads=0 / nr=0 / decimate=1 / interlaced=0 / bluray_compat=0 /
constrained_intra=0 / bframes=12 / b_pyramid=2 / b_adapt=2 / b_bias=0 / direct=1 / weightb=1 /
open_gop=0 / weightp=2 / keyint=250 / keyint_min=23 / scenecut=40 / intra_refresh=0 /
rc_lookahead=60 / rc=crf / mbtree=1 / crf=17.0 / qcomp=0.60 / qpmin=0 / qpmax=69 / qpstep=4 /
ip_ratio=1.40 / aq=1:1.00
mdhd_Duration : 6954375

Аудио
Идентификатор : 2
Формат : AAC
Формат/Информация : Advanced Audio Codec
Профиль формата : LC
Идентификатор кодека : 40
Продолжительность : 1 ч. 55 м.
Вид битрейта : Переменный
Битрейт : 192 Кбит/сек
Каналы : 2 канала
Расположение каналов : Front: L R
Частота : 48,0 КГц
Метод сжатия : С потерями
Размер потока : 159 Мбайт (13%)
pb.wtf



Скачать Миллион способов потерять голову через торрент http://i68.fastpic.ru/big/2014/0904/e7/5241dcec441b44b0d4bae1f334b1c7e7.png Скачать фильм Миллион способов потерять голову через торрент бесплантно в хорошем качестве Описание: Угораздило же влюбиться не в том месте и не в то время. Здесь хамят в ресторанах, о горячей воде слагают легенды, да и с ... 10 10 3
Торрент: Зарегистрирован [2014-09-04 15:33] · скачан: 96 раз
Статус: √ проверено
Размер: 1.17 GB
Как cкачать? Как скачать Миллион способов потерять голову через торрент | UTorrent

28-11-2019 20:33  

Отключить всю рекламу на сайте

    Дорогой пользователь! Огромная просьба, поблагодарите релизера, оцените раздачу и оставьте свои комментарий, если Вы скачали Миллион способов потерять голову через торрент бесплатно! Внесите свою лепту в развитие PiratBit!
    Комментировать посты могут только пользователи прошедшие не сложную регистрацию
    Показать сообщения:    

    Миллион способов потерять голову через торрент
    Скачать бесплатно Миллион способов потерять голову
    Миллион способов потерять голову скачать торрент
    Миллион способов потерять голову смотреть онлайн
    Cкачать фильм Миллион способов потерять голову бесплатно
    Миллион способов потерять голову скачать торрент в хорошем качестве
    Миллион способов потерять голову смотреть онлайн бесплатно в хорошем качестве


    Вы не можете начинать темы
    Вы не можете отвечать на сообщения
    Вы не можете редактировать свои сообщения
    Вы не можете удалять свои сообщения
    Вы не можете голосовать в опросах
    Вы не можете прикреплять файлы к сообщениям
    Вы можете скачивать файлы