Наша группа ВК в очередной раз забанена мы уходим в Телеграм, присоединяйтесь!!!

Лицензия

30

iTunes

мы

iTunes

1

1 сезон

Чернобыль

iTunes

1+1

iTunes

Закатать в асфальт

8 сезон

Игра престолов

1 сезон

Ральф против интернета

ИГРА 18+

pack

ВАЖНО

!!Акция!!

Alien_RageХит недели

RePack

Resident Evil 21
pack

RePack

Metro:Exodus

!!Акция!!

Alien_Rage

RePack

fifa19

RePack

Assassins Creed: Odyssey

RePack

NEED FOR SPEED™ PAYBACK

3 сезон

9 сезон

Бесстыжие 9 сезон

Все сериалы

все сериалы на PB.wtf

RePack

FAR CRY 5
Ребята, катастрофически не хватает 2730р. для оплаты серверов за АПРЕЛЬ (всвязи с блокировками трафик упал в 3 раза), 1-2р., выручайте.
  

Придорожная закусочная / Road House (Роуди Херрингтон) [1989, боевик, триллер, BDRip] MVO pb.wtf

Придорожная закусочная через торрент pb.wtf

Размер: 2.18 GB | Добавлен: 4 года 8 мес. назад | Торрент скачан:36 раз
Скачать  

04-09-2014 17:23 Придорожная закусочная Скачать торрент  

Придорожная закусочная / Road House
«Dalton's the best bouncer in the business. His nights are filled with fast action, hot music and beautiful women. It's a dirty job, but somebody's got to do it»


Год выпуска: 1989
Страна: США
Жанр: боевик, триллер
Продолжительность: 01:54:09
Перевод: Профессиональный (многоголосый закадровый)

Режиссер: Роуди Херрингтон
Сценарий: Дэвид Ли Генри, Хилари Хенкин
Продюсер: Тим Мур, Стив Перри, Джоэл Силвер
Оператор: Дин Канди
Композитор : Мартин Брайли, Майкл Кэмен, Уилли Найл
Художник: Уильям Дж. Даррел мл., Мэрлин Вэнс, Филип Леонард
Монтаж: Джон Ф. Линк, Фрэнк Дж. Уриосте

В ролях: Патрик Суэйзи / Patrick Swayze (James Dalton, Head Bouncer Double Deuce Club), Келли Линч / Kelly Lynch (Dr. Elizabeth Clay), Сэм Эллиотт / Sam Elliott (Wade Garrett), Бен Газзара / Ben Gazzara (Brad Wesley, Jasper Kingpin), Маршалл Р. Тиг / Marshall R. Teague (Jimmy, Wesley's No.1 Thug), Джули Майклс / Julie Michaels (Denise), Ред Уэст / Red West (Red Webster, Red's Auto Parts Owner), Саншайн Паркер / Sunshine Parker (Emmet, Dalton's Landlord)


Описание: Далтон — легендарный вышибала, который прибывает в Джаспер, штат Миссури с определенной целью: восстановить порядок в небезопасном баре Двойная порция.По мере того, как он избавляет бар от головорезов, хулиганов и наемных убийц, крепчает гнев их работодателя — печально известного рэкетира Брэда Уэсли. Город живет в страхе перед Уэсли, но Далтон готов действовать!

Бюджет: $17 000 000
Сборы в США: $30 050 028
Зрители: США 7.57 млн
Премьера (мир): 19 мая 1989
Релиз на DVD: 25 января 2005, «Гемини-Фильм»
Рейтинг MPAA: Лицам до 17 лет обязательно присутствие взрослого


Качество: BDRip
Формат: AVI
Видео кодек: XviD
Аудио кодек: AC3
Видео: 720x304 (2.35:1), 23.976 fps, XviD, 2 049 Kbps
Аудио: Аудио #1: AC3, 224 Kbps, 48.0 KHz, 2 ch Профессиональный (многоголосый закадровый)
Аудио #2: AC3, 448 Kbps, 48.0 KHz, 6 ch Оригинал (Английский)
· Саундтрек к фильму и все музыкальные номера исполнил известный канадский гитарист и блюзмен Джефф Хили. Джефф с детства слеп, поэтому играет в свойственной только ему манере, что придаёт его композициям неподражаемые, уникальные с технической точки зрения формы исполнения.

· Дом и сарай фермера Эммета были специально построены для фильма в месте под названием Королевское ранчо, расположенном недалеко от Фресно, на реке Кингс. Постройки были искусственно «состарены» для подлинности.

· Магазин автозапчастей Реда Уэста и бар «Две двойки» на самом деле являлись только фасадами, у которых было всего две стороны. Они были построены неподалёку от города Фресно (Калифорния), где и проходили съёмки. Интерьер бара был создан внутри звукозаписывающей студии.

· Автомобиль, на котором Далтон ездил в бар — Buick Riviera 1965 года.

Код:

General
Complete name                    : Pridorozhnaya.Zakusochnaya.1989.DUAL.BDRip.XviD.AC3.avi
Format                           : AVI
Format/Info                      : Audio Video Interleave
Format profile                   : OpenDML
File size                        : 2.18 GiB
Duration                         : 1h 54mn
Overall bit rate                 : 2 739 Kbps

Video
ID                               : 0
Format                           : MPEG-4 Visual
Format profile                   : Advanced Simple@L5
Format settings, BVOP            : Yes
Format settings, QPel            : No
Format settings, GMC             : No warppoints
Format settings, Matrix          : Default (MPEG)
Muxing mode                      : Packed bitstream
Codec ID                         : XVID
Codec ID/Hint                    : XviD
Duration                         : 1h 54mn
Bit rate                         : 2 049 Kbps
Width                            : 720 pixels
Height                           : 304 pixels
Display aspect ratio             : 2.35:1
Frame rate                       : 23.976 fps
Color space                      : YUV
Chroma subsampling               : 4:2:0
Bit depth                        : 8 bits
Scan type                        : Progressive
Bits/(Pixel*Frame)               : 0.390
Stream size                      : 1.63 GiB (75%)
Writing library                  : XviD 1.2.1 (UTC 2008-12-04)

Audio #1
ID                               : 1
Format                           : AC-3
Format/Info                      : Audio Coding 3
Mode extension                   : CM (complete main)
Codec ID                         : 2000
Duration                         : 1h 54mn
Bit rate mode                    : Constant
Bit rate                         : 224 Kbps
Channel(s)                       : 2 channels
Channel positions                : Front: L R
Sampling rate                    : 48.0 KHz
Bit depth                        : 16 bits
Video delay                      : 125ms
Stream size                      : 183 MiB (8%)
Alignment                        : Split accross interleaves
Interleave, duration             : 42 ms (1.00 video frame)
Interleave, preload duration     : 500 ms

Audio #2
ID                               : 2
Format                           : AC-3
Format/Info                      : Audio Coding 3
Mode extension                   : CM (complete main)
Codec ID                         : 2000
Duration                         : 1h 54mn
Bit rate mode                    : Constant
Bit rate                         : 448 Kbps
Channel(s)                       : 6 channels
Channel positions                : Front: L C R, Side: L R, LFE
Sampling rate                    : 48.0 KHz
Bit depth                        : 16 bits
Stream size                      : 366 MiB (16%)
Alignment                        : Split accross interleaves
Interleave, duration             : 42 ms (1.00 video frame)
Interleave, preload duration     : 500 ms

pb.wtf



Скачать Придорожная закусочная через торрент http://i68.fastpic.ru/big/2014/0904/78/cbffab81a4327a51ca02ee0f267b3178.jpg Скачать фильм Придорожная закусочная через торрент бесплантно в хорошем качестве Описание: Далтон — легендарный вышибала, который прибывает в Джаспер, штат Миссури с определенной целью: восстановить порядок в ... 10 10 4
Торрент: Зарегистрирован [2014-09-04 17:23] · скачан: 36 раз
Статус: √ проверено
Размер: 2.18 GB
Как cкачать? Как скачать Придорожная закусочная через торрент | qTorrent


>> Регистрируемся здесь <<






Отзывы и комментарии о схеме читаем и пишем здесь: ---> Отзывы и комментарии о схеме

Новые благодарочки в телеграм довольных пользователей:
скриншот   скриншот   скриншот   скриншот   скриншот
    Дорогой пользователь! Огромная просьба, поблагодарите релизера, оцените раздачу и оставьте свои комментарий, если Вы скачали Придорожная закусочная через торрент бесплатно! Внесите свою лепту в развитие PiratBit!
    Комментировать посты могут только пользователи прошедшие не сложную регистрацию
    Показать сообщения:    

    Придорожная закусочная через торрент
    Скачать бесплатно Придорожная закусочная
    Придорожная закусочная скачать торрент
    Придорожная закусочная смотреть онлайн
    Cкачать фильм Придорожная закусочная бесплатно
    Придорожная закусочная скачать торрент в хорошем качестве
    Придорожная закусочная смотреть онлайн бесплатно в хорошем качестве


    Вы не можете начинать темы
    Вы не можете отвечать на сообщения
    Вы не можете редактировать свои сообщения
    Вы не можете удалять свои сообщения
    Вы не можете голосовать в опросах
    Вы не можете прикреплять файлы к сообщениям
    Вы можете скачивать файлы