Ссылка на приватное зеркало нашего сайта всего за 1$. Внимание количество ограничено!!!

2 сезон

iTunes

1 сезон

1

iTunes

iTunes

iTunes

1 сезон

RePack

30

ИГРА 18+

pack

ВАЖНО

!!Акция!!

Alien_RageХит недели

RePack

MK11
pack

Забери бонус

RePack

jed

!!Акция!!

Alien_Rage

RePack

fifa19

RePack

Assassins Creed: Odyssey

RePack

NEED FOR SPEED™ PAYBACK

4 сезон

9 сезон

Бесстыжие 9 сезон

Все сериалы

все сериалы на PB.wtf

RePack

FAR CRY 5
  

Последние дни на Марсе / The Last Days on Mars (Рори Робинсон) [2013,ужасы, фантастика, триллер, BDRip 1080p, MVO [НТВ+] от R.G. HD-Films pb.wtf

Последние дни на Марсе через торрент pb.wtf

Размер: 9.06 GB | Добавлен: 6 лет 1 мес. назад | Торрент скачан:139 раз
Скачать  

04-09-2014 18:26 Последние дни на Марсе Скачать торрент  

Последние дни на Марсе / The Last Days on Mars
«The search for life is about to end»

Год выпуска: 2013
Страна: Великобритания, Ирландия
Жанр:ужасы, фантастика, триллер
Продолжительность:01:38:29
Перевод:Профессиональный многоголосый [НТВ+]
Субтитры: русские (krilatkin)
Режиссер:Рори Робинсон

  • В ролях:

    Лив Шрайбер (Vincent Campbell), Элиас Котеас (Charles Brunel), Ромола Гарай (Rebecca Lane), Оливия Уильямс (Kim Aldrich), Джонни Харрис (Robert Irwin), Горан Костич (Marko Petrovic), Том Каллен (Richard Harrington), Юсра Варсама (Lauren Dalby), Патрик Джозеф Бернс (Flight Commander Ellis), Льюис Маклауд (Infected Voices / озвучка), Пол Уоррен (Infected Marko, в титрах не указан)

  • Описание:
    В последние дни пребывания на Марсе астронавты делают поразительное открытие: на собранных ими образцах грунта обнаружились микроскопические следы некой формы жизни. Вскоре землян должен забрать корабль, и оставшиеся часы они решают потратить на сбор дополнительных доказательств, для чего возвращаются в марсианскую долину.

  • Мировая премьера:20 мая 2013


    Качество: BDRip 1080p
    Формат:MKV
    Видео кодек: AVC
    Аудио кодек:AC3
    Видео: AVC, 1920x816 (2.35:1), 12524 kbps, 23,976 fps, 0,333 bpp
    Аудио: русский / AC3 / 5.1 / 48 kHz / 384 kbps / 16 bit ||


    Код:

    General
    Unique ID                                : 184762767425634037436994426858466835834 (0x8B0003BF66808D1E8C2EBB3F6B75FD7A)
    Complete name                            : D:\Торенты\Раздачи\The.Last.Days.on.Mars.2013.BDRip.1080p_Release for Piratbit.net_R.G. HD-Films.mkv
    Format                                   : Matroska
    Format version                           : Version 4 / Version 2
    File size                                : 9.06 GiB
    Duration                                 : 1h 38mn
    Overall bit rate                         : 13.2 Mbps
    Movie name                               : _Release for Piratbit.net_R.G. HD-Films
    Encoded date                             : UTC 2014-09-04 17:56:29
    Writing application                      : mkvmerge v6.7.0 ('Back to the Ground') 64bit built on Jan  8 2014 15:10:52
    Writing library                          : libebml v1.3.0 + libmatroska v1.4.1
    Attachment                               : Yes

    Video
    ID                                       : 1
    Format                                   : AVC
    Format/Info                              : Advanced Video Codec
    Format profile                           : High@L4.1
    Format settings, CABAC                   : Yes
    Format settings, ReFrames                : 5 frames
    Codec ID                                 : V_MPEG4/ISO/AVC
    Duration                                 : 1h 38mn
    Bit rate                                 : 12.5 Mbps
    Width                                    : 1 920 pixels
    Height                                   : 816 pixels
    Display aspect ratio                     : 2.35:1
    Frame rate                               : 23.976 fps
    Color space                              : YUV
    Chroma subsampling                       : 4:2:0
    Bit depth                                : 8 bits
    Scan type                                : Progressive
    Bits/(Pixel*Frame)                       : 0.333
    Stream size                              : 8.62 GiB (95%)
    Title                                    : _Release for Piratbit.net_R.G. HD-Films
    Writing library                          : x264 core 140 r2377+40 929f149 tMod [8-bit@4:2:0 X86_64]
    Encoding settings                        : cabac=1 / ref=5 / deblock=1:-3:-3 / analyse=0x3:0x113 / me=umh / subme=11 / psy=1 / fade_compensate=0.00 / psy_rd=1.10:0.00 / mixed_ref=1 / me_range=32 / chroma_me=1 / trellis=2 / 8x8dct=1 / cqm=0 / deadzone=21,11 / fast_pskip=0 / chroma_qp_offset=-2 / threads=18 / lookahead_threads=3 / sliced_threads=0 / nr=0 / decimate=0 / interlaced=0 / bluray_compat=0 / constrained_intra=0 / fgo=0 / bframes=8 / b_pyramid=2 / b_adapt=2 / b_bias=0 / direct=3 / weightb=1 / open_gop=0 / weightp=2 / keyint=240 / keyint_min=24 / scenecut=40 / intra_refresh=0 / rc=crf / mbtree=0 / crf=18.0000 / qcomp=0.70 / qpmin=0:0:0 / qpmax=69:69:69 / qpstep=4 / ip_ratio=1.20 / pb_ratio=1.20 / aq=4:0.90 / aq-sensitivity=10.00 / aq-factor=1.00:1.00:1.00 / aq2=0 / aq3=0
    Language                                 : Russian
    Default                                  : Yes
    Forced                                   : No

    Audio
    ID                                       : 2
    Format                                   : AC-3
    Format/Info                              : Audio Coding 3
    Mode extension                           : CM (complete main)
    Codec ID                                 : A_AC3
    Duration                                 : 1h 38mn
    Bit rate mode                            : Constant
    Bit rate                                 : 384 Kbps
    Channel(s)                               : 6 channels
    Channel positions                        : Front: L C R, Side: L R, LFE
    Sampling rate                            : 48.0 KHz
    Bit depth                                : 16 bits
    Compression mode                         : Lossy
    Stream size                              : 271 MiB (3%)
    Title                                    : Профессиональный (многоголосный) [НТВ+]
    Language                                 : Russian
    Default                                  : Yes
    Forced                                   : Yes

    Text
    ID                                       : 3
    Format                                   : UTF-8
    Codec ID                                 : S_TEXT/UTF8
    Codec ID/Info                            : UTF-8 Plain Text
    Title                                    : krilatkin
    Language                                 : Russian
    Default                                  : No
    Forced                                   : No

    Menu
    00:00:00.000                             : en:00:00:00.000
    00:07:46.383                             : en:00:07:46.383
    00:16:00.710                             : en:00:16:00.710
    00:23:27.364                             : en:00:23:27.364
    00:28:57.736                             : en:00:28:57.736
    00:39:09.013                             : en:00:39:09.013
    00:47:47.656                             : en:00:47:47.656
    00:53:25.202                             : en:00:53:25.202
    01:04:03.298                             : en:01:04:03.298
    01:11:38.169                             : en:01:11:38.169
    01:22:46.128                             : en:01:22:46.128
    01:32:18.867                             : en:01:32:18.867

    Скриншоты:

    Срочно! Нужна помощь!

    Релиз подготовлен специально для Piratbit.net. by Raven
    Поблагодарить релизера!
    pb.wtf



  • Скачать Последние дни на Марсе через торрент http://pic.kartinco.top/images/6/stazu.jpg Скачать фильм Последние дни на Марсе через торрент бесплантно в хорошем качестве Описание:В последние дни пребывания на Марсе астронавты делают поразительное открытие: на собранных ими образцах грунта обнаружились ... 9.9 10 11
    Торрент: Зарегистрирован [2014-09-04 18:26] · скачан: 139 раз
    Статус: √ проверено
    Размер: 9.06 GB
    Как cкачать? Как скачать Последние дни на Марсе через торрент | qTorrent

    28-11-2019 20:33  

    Отключить всю рекламу на сайте

    07-12-2015 12:38 Последние дни на Марсе Скачать торрент  

    Лично мне кино понравилось. Читал отзывы, мол начало затянуто. А вы хоть раз были в длительном круизе или морском рейсе? Через полгода начинаешь ненавидеть всех и всё тебя бесит. И это при возможности звонить домой каждый день. А тут космос...
    Есть ряд наивных действий и прочего иррационального, но опять же-а вы как бы себя повели в нештатной ситуации, да ещё на другой планете.
    Идея фильма не нова, но интересна. Повторю про сходство с moon 2112, cargo. Есть над чем подумать и во время просмотра, и после.pb.wtf



      Дорогой пользователь! Огромная просьба, поблагодарите релизера, оцените раздачу и оставьте свои комментарий, если Вы скачали Последние дни на Марсе через торрент бесплатно! Внесите свою лепту в развитие PiratBit!
      Комментировать посты могут только пользователи прошедшие не сложную регистрацию
      Показать сообщения:    

      Последние дни на Марсе через торрент
      Скачать бесплатно Последние дни на Марсе
      Последние дни на Марсе скачать торрент
      Последние дни на Марсе смотреть онлайн
      Cкачать фильм Последние дни на Марсе бесплатно
      Последние дни на Марсе скачать торрент в хорошем качестве
      Последние дни на Марсе смотреть онлайн бесплатно в хорошем качестве


      Вы не можете начинать темы
      Вы не можете отвечать на сообщения
      Вы не можете редактировать свои сообщения
      Вы не можете удалять свои сообщения
      Вы не можете голосовать в опросах
      Вы не можете прикреплять файлы к сообщениям
      Вы можете скачивать файлы