Достать ножи: Стеклянная луковица

MVO

Добыча

Дубляж

Уэнсдэй

1 сезон

Тор

Дубляж

13 клиническая

1 сезон

Жестокая ночь

MVO

Одни из нас

1 сезон

Deluxe

pack

Рекомендуем

30

Пиратка

ВАЖНО

ВАЖНО

Ghostwire

Пиратка

jed

RePack

nioh2

RePack

RDR2

RePack

NEED FOR SPEED™ PAYBACK

RePack

скачать торрент

Кинопоиск HD

Острые козырьки 6 сезон

6 сезон

FAR CRY 6

RePack

скачать торрент

Лицензия

скачать торрент

MVO

1

1 сезон

скачать торрент

1 сезон

скачать торрент

Лицензия

  

Красотки в Париже / Sous les jupes des filles (Одри Дана) [2014, комедия, BDRip] Дубляж Лицензия

Красотки в Париже через торрент pb.wtf

Размер: 1.46 GB | Добавлен: 8 лет 4 мес. назад | Торрент скачан:1210 раз
Смотреть онлайн | Скачать | Поддержите нас   

04-09-2014 19:31 Красотки в Париже Скачать торрент  

Красотки в Париже / Sous les jupes des filles
«Хотеть по-французски»

Год выпуска: 2014
Страна:Франция
Жанр:комедия
Продолжительность: 01:56:02
Перевод:Дубляж - [Лицензия]
Режиссер:Одри Дана
В ролях:

Ванесса Паради, Изабель Аджани, Летиция Каста, Сильви Тестю (Sam), Марина Хэндс (Inès), Алис Белаиди (Adeline), Жеральдин Накаш (Ysis), Жюли Ферье (Fanny), Одри Флеро (Sophie), Одри Дана (Jo), Элис Тальони (Marie), Паскаль Элбе (Le bel avocat)
  • Описание:
    Париж. Любовь. И, конечно, француженки: свободные, непредсказуемые, изысканные и страстные. Сегодня они решили раскрыть свои секреты и поделиться желаниями. Это комедия о любви, сексе и поцелуях, о том, чего и кого хотят женщины.


    Качество:BDRip
    Формат:AVI
    Видео кодек: XviD
    Аудио кодек:AC3
    Видео: XviD, 720x304 (2.35:1), 1342 kbps, 24 fps, 0,255 bpp
    Аудио: AC3 / 5.1 / 48 kHz / 448 kbps / 16 bit

    Код:

    General
    Complete name                            : D:\Торенты\Krasotki.v.Parije.2014.P.BDRip.avi
    Format                                   : AVI
    Format/Info                              : Audio Video Interleave
    File size                                : 1.46 GiB
    Duration                                 : 1h 56mn
    Overall bit rate                         : 1 799 Kbps
    Writing application                      : VirtualDubModRus 1.5.10.2 (build 2542/release)
    Writing library                          : VirtualDubMod build 2542/release

    Video
    ID                                       : 0
    Format                                   : MPEG-4 Visual
    Format profile                           : Advanced [email protected]
    Format settings, BVOP                    : 1
    Format settings, QPel                    : No
    Format settings, GMC                     : No warppoints
    Format settings, Matrix                  : Custom
    Codec ID                                 : XVID
    Codec ID/Hint                            : XviD
    Duration                                 : 1h 56mn
    Bit rate                                 : 1 342 Kbps
    Width                                    : 720 pixels
    Height                                   : 304 pixels
    Display aspect ratio                     : 2.35:1
    Frame rate                               : 24.000 fps
    Color space                              : YUV
    Chroma subsampling                       : 4:2:0
    Bit depth                                : 8 bits
    Scan type                                : Progressive
    Compression mode                         : Lossy
    Bits/(Pixel*Frame)                       : 0.255
    Stream size                              : 1.09 GiB (75%)
    Writing library                          : XviD 73

    Audio
    ID                                       : 1
    Format                                   : AC-3
    Format/Info                              : Audio Coding 3
    Mode extension                           : CM (complete main)
    Codec ID                                 : 2000
    Duration                                 : 1h 56mn
    Bit rate mode                            : Constant
    Bit rate                                 : 448 Kbps
    Channel(s)                               : 6 channels
    Channel positions                        : Front: L C R, Side: L R, LFE
    Sampling rate                            : 48.0 KHz
    Bit depth                                : 16 bits
    Compression mode                         : Lossy
    Stream size                              : 372 MiB (25%)
    Alignment                                : Split accross interleaves
    Interleave, duration                     : 42 ms (1.00 video frame)
    Interleave, preload duration             : 500 ms


    Скриншоты:

    Срочно! Нужна помощь!
    Поблагодарить релизера!



  • Скачать Красотки в Париже через торрент http://i63.fastpic.ru/big/2014/0910/06/75f4a79611d2b1fe2dd699278f798306.jpg Скачать, смотреть онлайн Красотки в Париже бесплантно в хорошем качестве Описание:Париж. Любовь. И, конечно, француженки: свободные, непредсказуемые, изысканные и страстные. Сегодня они решили раскрыть свои ... 9.5 10 47
    Торрент: Зарегистрирован [2014-09-09 23:16] · скачан: 1 210 раз
    Статус: √ проверено
    Размер: 1.46 GB
    Как cкачать? Как скачать Красотки в Париже через торрент | UTorrent




    Последний раз редактировалось: Ворон (2014-09-09 23:16), всего редактировалось 1 раз

    28-11-2019 20:33  


    Отключить вcю реклaмy на сайте, в т.ч. и в плеере онлайн просмотра!

    04-09-2014 20:15 Красотки в Париже Скачать торрент  


    http://puu....4d4f.jpg
    1-2 еще нормальные остальные просто ужас, и это у французов эталон красоты sarcastic Лучше б они к нам приехали за актрисами)=



    04-09-2014 21:10 Красотки в Париже Скачать торрент  

    Raven писал(а):

    http://puu.sh/blDr5/9ee69e4d4f.jpg 1-2 еще нормальные остальные просто ужас, и это у французов эталон красоты sarcastic Лучше б они к нам приехали за актрисами)=

    они к нам и так регулярно за актрисами ездют :zay:



    05-09-2014 01:21 Красотки в Париже Скачать торрент  

    На мой взгляд милы лишь 3-я и 6-я девушки, и то лишь со скидкой на улыбку. Остальные чернь, сбродъ, смердъ.



    09-09-2014 23:17 Красотки в Париже Скачать торрент  

    Замена на Дубляж - [Лицензия]



    11-09-2014 10:13 Красотки в Париже Скачать торрент  

    OreSama писал(а):

    На мой взгляд милы лишь 3-я и 6-я девушки, и то лишь со скидкой на улыбку. Остальные чернь, сбродъ, смердъ.

    не этим сложно не согласиться!



    11-09-2014 12:55 Красотки в Париже Скачать торрент  

    очередной киновысер от фрэнчей,даже 20 минут не осилил



      Дорогой пользователь! Огромная просьба, поблагодарите релизера, оцените раздачу и оставьте свои комментарий, если Вы скачали Красотки в Париже через торрент бесплатно!!
      Комментировать посты могут только пользователи прошедшие не сложную регистрацию
      Показать сообщения:    


      Красотки в Париже через торрент
      Скачать бесплатно Красотки в Париже
      Красотки в Париже скачать торрент
      Красотки в Париже смотреть онлайн
      Cкачать фильм Красотки в Париже бесплатно
      Красотки в Париже скачать торрент в хорошем качестве
      Красотки в Париже смотреть онлайн бесплатно в хорошем качестве
      Вы не можете начинать темы
      Вы не можете отвечать на сообщения
      Вы не можете редактировать свои сообщения
      Вы не можете удалять свои сообщения
      Вы не можете голосовать в опросах
      Вы не можете прикреплять файлы к сообщениям
      Вы можете скачивать файлы
      Красотки в Париже / Sous les jupes des filles [2014, комедия, BDRip] Дубляж Лицензия смотреть онлайн, скачать торрент picoco.icu