Ссылка на приватное зеркало нашего сайта всего за 1$. Внимание количество ограничено!!!

2 сезон

iTunes

1 сезон

1

2 сезон

2 сезон

iTunes

1 сезон

RePack

30

Ultimate

ВАЖНО

ИГРА 18+

pack

RePack

MK11
pack

Забери бонус

RePack

jed

!!Акция!!

Alien_Rage

RePack

fifa19

RePack

Assassins Creed: Odyssey

RePack

NEED FOR SPEED™ PAYBACK

4 сезон

9 сезон

Бесстыжие 9 сезон

Все сериалы

все сериалы на PB.wtf

RePack

FAR CRY 5
  

Гудини / Houdini / Сезон: 1 / Серии 1 из 2 (Ули Эдел / Uli Edel) [2014, Канада, драма, биография, WEB-DLRip, MVO] [AlexFilm] pb.wtf

Гудини через торрент pb.wtf

Размер: 1007 MB | Добавлен: 6 лет 2 мес. назад | Торрент скачан:208 раз
Скачать  

05-09-2014 01:17 Гудини Скачать торрент  

Гудини (мини-сериал) / Houdini


  • Год выпуска: 2014
  • Страна: Канада
  • Жанр: драма, биография

  • Продолжительность: 01:24:19(Серия)
  • Перевод: Профессиональный многоголосый закадровый) [AlexFilm]

  • Режиссер: Ули Эдел / Uli Edel
  • В ролях:

    Эдриан Броуди (Harry Houdini), Кристен Коннолли (Bess), Ивэн Джонс (Jim Collins), Szofi Berki (Madame Marcanti), Кэролайн Болтон (Sylvia The Bearded Lady), Faye Bradbrook (Mrs. Robinson), Меган Доддс (Mina Crandon (2014)), Том Бенедикт Найт (Dash Houdini), Патрик МакКалло (Sheriff Olson), Louis Mertens (Young Houdini), Дьюла Мештерхази (Kaiser Wilhelm II.), Саймон Нэйдер (Tsar Nicholas Romanov II)

  • Описание:
    В основу сюжета легла насыщенная событиями биография Гарри Гудини (Эдриен Броуди) — от бедности до всемирной славы, от цирковых подмостков до лучших концертных залов Европы и Америки. Зрители канала History смогут посетить поражающее воображение закулисье магических шоу и узнать тайны таких опасных трюков, как побег из китайской водной камеры пыток. Создатели проекта не обошли вниманием и другие сферы деятельности великого иллюзиониста — его участие в международном шпионаже и борьбу с псевдоспиритуалистами. При этом самый ловкий и везучий фокусник в истории представлен в новом шоу как обычный человек со своими слабостями и страхами. Гарри Гудини неустанно преодолевал себя и в итоге стал настоящей мировой легендой.
  • Рейтинг:



  • Качество: WEB-DLRip
  • Формат: :AVI
  • Видео кодек: XviD
  • Аудио кодек: MP3
  • Видео: 720x400 (16:9), 1399 kbps, 23,976 fps, 0,203 bpp
  • Аудио №1: Русский 2.0 / 48 kHz / 128 kbps /
  • Аудио №2: Английский 2.0 / 48 kHz / 128 kbps /
  • Релиз от: GEKADOL
    Не нашли то, что искали? Для вас "Стол заказов" "Жмём сюда!"

    Код:

    Внимание! Раздача ведётся путём добавления новых серий; при каждом добавлении создаётся новый торрент. Чтобы начать докачку новой серии, пользователям необходимо сделать следующее:
    (1) остановить скачивание,
    (2) удалить старый торрент у себя из клиента (старые серии удалять не надо),
    (3) скачать новый торрент и запустить его у себя в клиенте вместо старого, при этом указать клиенту путь в старую папку куда и должно происходить скачивание новых серий.
    Ваш клиент при этом должен произвести хеширование (проверку) старой папки (если не производит сам - помогите ему сделать это), и будет докачивать только те серии которых у вас ещё нет. Старые серии при этом не удаляются, а продолжают раздаваться!
    Eсли вы уже удалили старые серии, то предотвратить повторную закачку старых серий можно, отжав галочку в соответсвующих местах при запуске нового торрента. По возможности, желательно не удалять старые серии как можно дольше чтобы релизёр не столько продолжал раздавать старые серии, а смог сконцентрироваться на новых.


    Код:

    General
    Complete name                            : I:\Houdini (s.01)\Houdini.2014.Part.1.WEB-DLRip.avi
    Format                                   : AVI
    Format/Info                              : Audio Video Interleave
    File size                                : 1 007 MiB
    Duration                                 : 1h 24mn
    Overall bit rate                         : 1 669 Kbps
    Movie name                               : Houdini 2014 Part 1 @ AlexFilm
    Writing application                      : VirtualDubMod 1.5.10.2 (build 2542/release)

    Video
    ID                                       : 0
    Format                                   : MPEG-4 Visual
    Format profile                           : Advanced Simple@L5
    Format settings, BVOP                    : 1
    Format settings, QPel                    : No
    Format settings, GMC                     : No warppoints
    Format settings, Matrix                  : Default (MPEG)
    Codec ID                                 : XVID
    Codec ID/Hint                            : XviD
    Duration                                 : 1h 24mn
    Bit rate                                 : 1 399 Kbps
    Width                                    : 720 pixels
    Height                                   : 400 pixels
    Display aspect ratio                     : 16:9
    Frame rate                               : 23.976 fps
    Color space                              : YUV
    Chroma subsampling                       : 4:2:0
    Bit depth                                : 8 bits
    Scan type                                : Progressive
    Compression mode                         : Lossy
    Bits/(Pixel*Frame)                       : 0.203
    Stream size                              : 844 MiB (84%)
    Writing library                          : XviD 1.2.1 (UTC 2008-12-04)

    Audio #1
    ID                                       : 1
    Format                                   : MPEG Audio
    Format version                           : Version 1
    Format profile                           : Layer 3
    Mode                                     : Joint stereo
    Mode extension                           : MS Stereo
    Codec ID                                 : 55
    Codec ID/Hint                            : MP3
    Duration                                 : 1h 24mn
    Bit rate mode                            : Constant
    Bit rate                                 : 128 Kbps
    Channel(s)                               : 2 channels
    Sampling rate                            : 48.0 KHz
    Compression mode                         : Lossy
    Stream size                              : 77.2 MiB (8%)
    Alignment                                : Aligned on interleaves
    Interleave, duration                     : 42 ms (1.00 video frame)
    Interleave, preload duration             : 504 ms
    Title                                    : Russian (AlexFilm)

    Audio #2
    ID                                       : 2
    Format                                   : MPEG Audio
    Format version                           : Version 1
    Format profile                           : Layer 3
    Mode                                     : Joint stereo
    Codec ID                                 : 55
    Codec ID/Hint                            : MP3
    Duration                                 : 1h 24mn
    Bit rate mode                            : Constant
    Bit rate                                 : 128 Kbps
    Channel(s)                               : 2 channels
    Sampling rate                            : 48.0 KHz
    Compression mode                         : Lossy
    Stream size                              : 77.2 MiB (8%)
    Alignment                                : Aligned on interleaves
    Interleave, duration                     : 42 ms (1.00 video frame)
    Interleave, preload duration             : 504 ms
    Title                                    : English


    Скриншоты:

    Раздача ведётся путём добавления новых серий. Добавлена 1 серия (05.09.2014).Просьба перекачать торрент файл.

    pb.wtf



  • Скачать Гудини через торрент http://pic.kartinco.top/images/7/u45f1.jpg Скачать фильм Гудини через торрент бесплантно в хорошем качестве Описание: В основу сюжета легла насыщенная событиями биография Гарри Гудини (Эдриен Броуди) — от бедности до всемирной славы, от цирковых ... 10 10 7
    Торрент: Зарегистрирован [2014-09-05 01:17] · скачан: 208 раз
    Статус: √ проверено
    Размер: 1007 MB
    Как cкачать? Как скачать Гудини через торрент | qTorrent

    28-11-2019 20:33  

    Отключить всю рекламу на сайте

    05-09-2014 04:28 Гудини Скачать торрент  

    Лосты хитрюги разбили на 4 серии))))pb.wtf



    08-09-2014 06:32 Гудини Скачать торрент  

    А фильмец, на мой взгляд, зачетный!pb.wtf



    13-09-2014 11:39 Гудини Скачать торрент  

    когда будет новая серия?pb.wtf



    26-09-2014 16:27 Гудини Скачать торрент  

    2-я давно как в сетиpb.wtf



      Дорогой пользователь! Огромная просьба, поблагодарите релизера, оцените раздачу и оставьте свои комментарий, если Вы скачали Гудини через торрент бесплатно! Внесите свою лепту в развитие PiratBit!
      Комментировать посты могут только пользователи прошедшие не сложную регистрацию
      Показать сообщения:    

      Гудини через торрент
      Скачать бесплатно Гудини
      Гудини скачать торрент
      Гудини смотреть онлайн
      Cкачать фильм Гудини бесплатно
      Гудини скачать торрент в хорошем качестве
      Гудини смотреть онлайн бесплатно в хорошем качестве


      Вы не можете начинать темы
      Вы не можете отвечать на сообщения
      Вы не можете редактировать свои сообщения
      Вы не можете удалять свои сообщения
      Вы не можете голосовать в опросах
      Вы не можете прикреплять файлы к сообщениям
      Вы можете скачивать файлы