Мега распродажа FORZA HORIZON 4 ULTIMATE+ВСЕ DLC+ОНЛАЙН всего за 499р. 349 руб. (супер цена). Внимание количество ограничено!!!

iTunes

1+1

iTunes

мы

iTunes

1

1 сезон

Чернобыль

1 сезон

Ральф против интернета

Лицензия

ПШазам

8 сезон

Игра престолов

Лицензия

30
pack

ВАЖНО

!!Акция!!

Alien_RageХит недели

RePack

Resident Evil 21

ИГРА 18+

pack

RePack

Metro:Exodus

!!Акция!!

Alien_Rage

RePack

fifa19

RePack

Assassins Creed: Odyssey

RePack

NEED FOR SPEED™ PAYBACK

3 сезон

9 сезон

Бесстыжие 9 сезон

Все сериалы

все сериалы на PB.wtf

RePack

FAR CRY 5
Ребята, катастрофически не хватает 2730р. для оплаты серверов за ИЮНЬ (всвязи с блокировками трафик упал в 3 раза), 1-2р., выручайте.
  

Восходящее солнце / Rising Sun (Филип Кауфман) [1993, боевик, триллер, драма, криминал, детектив, BDRip] MVO pb.wtf

Восходящее солнце через торрент pb.wtf

Размер: 2.18 GB | Добавлен: 4 года 10 мес. назад | Торрент скачан:119 раз
Скачать  

05-09-2014 02:36 Восходящее солнце Скачать торрент  

Восходящее солнце / Rising Sun


Год выпуска: 1993
Страна: США
Жанр: боевик, триллер, драма, криминал, детектив
Продолжительность: 02:09:25
Перевод: Профессиональный (многоголосый закадровый)

Режиссер: Филип Кауфман
Сценарий: Майкл Крайтон, Филип Кауфман, Майкл Бэкес
Продюсер: Питер Кауфман, Йен Брайс, Шон Коннери
Оператор: Майкл Чэпмен
Композитор : Тору Такэмицу
Художник: Дин Тавуларис, Анджело П. Грэхэм, Жаклин Уэст
Монтаж: Стивен А. Роттер, Уильям С. Шарф

В ролях: Шон Коннери / Sean Connery (Capt. John Connor), Уэсли Снайпс / Wesley Snipes (Lt. Webster Smith), Харви Кейтель / Harvey Keitel (Lt. Tom Graham), Кэри-Хироюки Тагава / Cary-Hiroyuki Tagawa (Eddie Sakamura), Кевин Андерсон / Kevin Anderson (Bob Richmond), Мако / Mako (Yoshida-san), Рэй Уайз / Ray Wise (Senator John Morton), Стэн Эги / Stan Egi (Ishihara)


Описание: В зале заседаний совета директоров крупной японской корпорации найдена задушенная проститутка. Расследование этого убийства поручается детективу со знанием японской культуры и Лос-Анджелесскому офицеру.Впоследствии становится ясно, что мертвая девушка только верхушка айсберга хитросплетенных интриг и жестоких войн корпораций. Чтобы распутать эту головоломку, они окунаются в тайный мир новейших технологий, древних традиций и мнимой преданности.
Сборы в США: $63 179 523
Сборы в мире: $107 198 790
Зрители: США 15.3 млн , Германия 1.1 млн , Испания 942.8 тыс.
Премьера (мир): 30 июля 1993
Релиз на DVD: 12 марта 2009, «Двадцатый Век Фокс СНГ»
Рейтинг MPAA: Лицам до 17 лет обязательно присутствие взрослого


Качество: BDRip
Формат: AVI
Видео кодек: XviD
Аудио кодек: AC3
Видео: 704x384 (16:9), 23.976 fps, XviD, 1 953 Kbps
Аудио: Аудио #1: AC3, 448 Kbps, 48.0 KHz, 6 ch
· Майкл Крайтон, написавший роман, положенный в основу фильма, а также выступивший в качестве соавтора сценария, создавал образ Коннора с расчетом на Шона Коннери.

· В книге отчетливо прослеживались антияпонские настроения, однако в картине их пришлось сильно приглушить, поскольку лента создавалась на голливудской студии, поддерживающей тесные корпоративные связи с Японией.

· Красный автомобиль Эдди — Vector W8, автомобиль американского производства.

· Автор романа Майкл Крайтон и сценарист Майкл Бейкс покинули проект из-за разногласий с режиссером Филипом Кауфманом. Режиссер настаивал, чтобы роль лейтенанта Смита исполнял афро-американец. В книге детектив Смит белый.

Код:

General
Complete name                    : Voshodyaschee.solnce.1993.RUS.BDRip.XviD.AC3.avi
Format                           : AVI
Format/Info                      : Audio Video Interleave
Format profile                   : OpenDML
File size                        : 2.18 GiB
Duration                         : 2h 9mn
Overall bit rate                 : 2 413 Kbps

Video
ID                               : 0
Format                           : MPEG-4 Visual
Format profile                   : Advanced Simple@L5
Format settings, BVOP            : Yes
Format settings, QPel            : No
Format settings, GMC             : No warppoints
Format settings, Matrix          : Custom
Codec ID                         : XVID
Codec ID/Hint                    : XviD
Duration                         : 2h 9mn
Bit rate                         : 1 953 Kbps
Width                            : 704 pixels
Height                           : 384 pixels
Display aspect ratio             : 16:9
Frame rate                       : 23.976 fps
Color space                      : YUV
Chroma subsampling               : 4:2:0
Bit depth                        : 8 bits
Scan type                        : Progressive
Bits/(Pixel*Frame)               : 0.301
Stream size                      : 1.77 GiB (81%)
Writing library                  : XviD 57

Audio
ID                               : 1
Format                           : AC-3
Format/Info                      : Audio Coding 3
Mode extension                   : CM (complete main)
Codec ID                         : 2000
Duration                         : 2h 9mn
Bit rate mode                    : Constant
Bit rate                         : 448 Kbps
Channel(s)                       : 6 channels
Channel positions                : Front: L C R, Side: L R, LFE
Sampling rate                    : 48.0 KHz
Bit depth                        : 16 bits
Stream size                      : 415 MiB (19%)
Alignment                        : Split accross interleaves
Interleave, duration             : 42 ms (1.00 video frame)
Interleave, preload duration     : 500 ms

pb.wtf



Скачать Восходящее солнце через торрент http://i64.fastpic.ru/big/2014/0905/0e/1b9ac91464499ff6f42aea15dc683b0e.jpg Скачать фильм Восходящее солнце через торрент бесплантно в хорошем качестве Описание: В зале заседаний совета директоров крупной японской корпорации найдена задушенная проститутка. Расследование этого убийства ... 7.8 10 4
Торрент: Зарегистрирован [2014-09-05 02:36] · скачан: 119 раз
Статус: √ проверено
Размер: 2.18 GB
Как cкачать? Как скачать Восходящее солнце через торрент | qTorrent

% Раздел Тема Автор DL S | L
Фильмы [HD 720p, 1080p] (Хороший звук DUB, MVO) [ 10.14 GB ] Восходящее солнце / Rising Sun [1993 BDRip 1080p HEVC 3xAVO+MVO] Мичман37 Скачать
1 | 0
Фильмы (Blu-ray, BD-Remux, HDDVD) [ 29.13 GB ] Восходящее солнце / Rising Sun [1993 BD Remux 1080p] MVO+2xAVO bober100 Скачать
1 | 0
Фильмы [HD 720p, 1080p] (Хороший звук DUB, MVO) [ 18.76 GB ] Восходящее солнце / Rising Sun [1993 BDRip 1080p by msltel] MVO 3 x AVO msltel Скачать
1 | 0
Фильмы [HD 720p, 1080p] (Хороший звук DUB, MVO) [ 7.25 GB ] Восходящее солнце / Rising Sun [1993 BDRip 720p by msltel] MVO 3 x AVO msltel Скачать
1 | 0


>> Регистрируемся здесь <<






Отзывы и комментарии о схеме читаем и пишем здесь: ---> Отзывы и комментарии о схеме

Новые благодарочки в телеграм довольных пользователей:
скриншот   скриншот   скриншот   скриншот   скриншот
    Дорогой пользователь! Огромная просьба, поблагодарите релизера, оцените раздачу и оставьте свои комментарий, если Вы скачали Восходящее солнце через торрент бесплатно! Внесите свою лепту в развитие PiratBit!
    Комментировать посты могут только пользователи прошедшие не сложную регистрацию
    Показать сообщения:    

    Восходящее солнце через торрент
    Скачать бесплатно Восходящее солнце
    Восходящее солнце скачать торрент
    Восходящее солнце смотреть онлайн
    Cкачать фильм Восходящее солнце бесплатно
    Восходящее солнце скачать торрент в хорошем качестве
    Восходящее солнце смотреть онлайн бесплатно в хорошем качестве


    Вы не можете начинать темы
    Вы не можете отвечать на сообщения
    Вы не можете редактировать свои сообщения
    Вы не можете удалять свои сообщения
    Вы не можете голосовать в опросах
    Вы не можете прикреплять файлы к сообщениям
    Вы можете скачивать файлы