Ссылка на приватное зеркало нашего сайта всего за 1$. Внимание количество ограничено!!!

2 сезон

iTunes

1 сезон

1

iTunes

iTunes

iTunes

1 сезон

RePack

30

ИГРА 18+

pack

ВАЖНО

!!Акция!!

Alien_RageХит недели

RePack

MK11
pack

Забери бонус

RePack

jed

!!Акция!!

Alien_Rage

RePack

fifa19

RePack

Assassins Creed: Odyssey

RePack

NEED FOR SPEED™ PAYBACK

4 сезон

9 сезон

Бесстыжие 9 сезон

Все сериалы

все сериалы на PB.wtf

RePack

FAR CRY 5
  

Учителя / Серии 1-8 из 8 (Вартан Акопян) [2014, Россия, мелодрама, WEB-DLRip) pb.wtf

Учителя через торрент pb.wtf

Размер: 4.16 GB | Добавлен: 6 лет 1 мес. назад | Торрент скачан:458 раз
Скачать  

05-09-2014 08:09 Учителя Скачать торрент  

Учителя
«Обратно в школу, чтобы вернуть любовь»


  • Год выпуска: 2014
  • Страна: Россия
  • Жанр: мелодрама
  • Продолжительность: 00:51:41(Серия)
  • Перевод: Не требуется

  • Режиссер: Вартан Акопян
  • В ролях:

    Марк Богатырев (Арсений Платонов), Ольга Красько, Сергей Фролов (Антон), Ирина Розанова, Алика Смехова, Валерий Баринов, Игорь Буяк, Ангелина Притуманова (Светлана), Алексей Лукин, Полина Фадеева (десятиклассница), Андрей Фандеев (Боря), Таисия Шипилова (Ксюша)

  • Описание:
    Из-за скандала в прямом эфире известный телеведущий праймового ток-шоу покидает столицу и устраивается в подмосковную школу учителем литературы. Неудачная шутка во время выпуска ток-шоу «Поболтаем?» стоила его ведущему Арсению Платонову карьеры. Вчерашняя звезда, он возвращается к маме в небольшой подмосковный городок. Новый директор школы, которую десять лет назад заканчивал Арсений, рад встретить столь уважаемого и популярного человека в местном баре. И настойчиво приглашает Платонова в школу - провести несколько факультативов для старшеклассников на тему «Секреты успеха».
    В школе Арсений встречает свою бывшую одноклассницу Машу, первую красавицу школы, в которую был безответно влюблен. Сейчас она - скромная учительница начальной школы, одинокая, с двумя детьми... Арсений решает остаться на какое-то время в школе, чтобы наверстать упущенное и завоевать бывшую «королеву красоты» - он уверен, что в его нынешнем статусе телезвезды это будет проще простого...
  • Рейтинг:



  • Качество: WEB-DLRip
  • Формат: :AVI
  • Видео кодек: XviD
  • Аудио кодек: AC3
  • Видео: 720x400 (16:9), 1153 kbps, 25 fps, 0,160 bpp
  • Аудио: 2.0 / 48 kHz / 192 kbps / 16 bit
  • Релиз от: GEKADOL
    Не нашли то, что искали? Для вас "Стол заказов" "Жмём сюда!"

    Код:

    General
    Complete name                            : D:\Фильмы\Uchitelya.WEB-DLRip.MediaClub\Uchitelya.08.WEB-DLRip.MediaClub.avi
    Format                                   : AVI
    Format/Info                              : Audio Video Interleave
    File size                                : 501 MiB
    Duration                                 : 51mn 41s
    Overall bit rate                         : 1 356 Kbps
    Writing application                      : VirtualDubMod 1.5.10.3 | www.virtualdub-fr.org || (build 2550/release)
    Writing library                          : VirtualDubMod build 2550/release

    Video
    ID                                       : 0
    Format                                   : MPEG-4 Visual
    Format profile                           : Advanced Simple@L5
    Format settings, BVOP                    : 1
    Format settings, QPel                    : No
    Format settings, GMC                     : No warppoints
    Format settings, Matrix                  : Default (H.263)
    Codec ID                                 : XVID
    Codec ID/Hint                            : XviD
    Duration                                 : 51mn 41s
    Bit rate                                 : 1 154 Kbps
    Width                                    : 720 pixels
    Height                                   : 400 pixels
    Display aspect ratio                     : 16:9
    Frame rate                               : 25.000 fps
    Color space                              : YUV
    Chroma subsampling                       : 4:2:0
    Bit depth                                : 8 bits
    Scan type                                : Progressive
    Compression mode                         : Lossy
    Bits/(Pixel*Frame)                       : 0.160
    Stream size                              : 427 MiB (85%)
    Writing library                          : XviD 73

    Audio
    ID                                       : 1
    Format                                   : AC-3
    Format/Info                              : Audio Coding 3
    Mode extension                           : CM (complete main)
    Codec ID                                 : 2000
    Duration                                 : 51mn 41s
    Bit rate mode                            : Constant
    Bit rate                                 : 192 Kbps
    Channel(s)                               : 2 channels
    Channel positions                        : Front: L R
    Sampling rate                            : 48.0 KHz
    Bit depth                                : 16 bits
    Compression mode                         : Lossy
    Stream size                              : 71.0 MiB (14%)
    Alignment                                : Split accross interleaves
    Interleave, duration                     : 40 ms (1.00 video frame)
    Interleave, preload duration             : 500 ms


    Скриншоты:


    pb.wtf



  • Скачать Учителя через торрент http://i63.fastpic.ru/big/2014/0905/bb/5abdd444819260cc10600ccc45d13dbb.jpg Скачать фильм Учителя через торрент бесплантно в хорошем качестве Описание: Из-за скандала в прямом эфире известный телеведущий праймового ток-шоу покидает столицу и устраивается в подмосковную школу ... 9 10 16
    Info! Золотая раздача, скачанное не засчитывается.
    Торрент: Зарегистрирован [2014-09-05 08:09] · скачан: 458 раз
    Статус: √ проверено
    Размер: 4.16 GB
    Как cкачать? Как скачать Учителя через торрент | qTorrent

    % Раздел Тема Автор DL S | L
    Наши сериалы [ 11.61 GB ] Учителя / Сезон: 1 / Серии: 1-8 из 8 [2014 Мело WEB-DL 1080p] bober100 Скачать
    1 | 0

    28-11-2019 20:33  

    Отключить всю рекламу на сайте

    05-09-2014 09:22 Учителя Скачать торрент  

    Юбилейный 555-ый) pb.wtf



      Дорогой пользователь! Огромная просьба, поблагодарите релизера, оцените раздачу и оставьте свои комментарий, если Вы скачали Учителя через торрент бесплатно! Внесите свою лепту в развитие PiratBit!
      Комментировать посты могут только пользователи прошедшие не сложную регистрацию
      Показать сообщения:    

      Учителя через торрент
      Скачать бесплатно Учителя
      Учителя скачать торрент
      Учителя смотреть онлайн
      Cкачать фильм Учителя бесплатно
      Учителя скачать торрент в хорошем качестве
      Учителя смотреть онлайн бесплатно в хорошем качестве


      Вы не можете начинать темы
      Вы не можете отвечать на сообщения
      Вы не можете редактировать свои сообщения
      Вы не можете удалять свои сообщения
      Вы не можете голосовать в опросах
      Вы не можете прикреплять файлы к сообщениям
      Вы можете скачивать файлы