Ссылка на приватное зеркало нашего сайта всего за 1$. Внимание количество ограничено!!!

2 сезон

iTunes

1 сезон

1

iTunes

iTunes

iTunes

1 сезон

RePack

30

ИГРА 18+

pack

ВАЖНО

!!Акция!!

Alien_RageХит недели

RePack

MK11
pack

Забери бонус

RePack

jed

!!Акция!!

Alien_Rage

RePack

fifa19

RePack

Assassins Creed: Odyssey

RePack

NEED FOR SPEED™ PAYBACK

4 сезон

9 сезон

Бесстыжие 9 сезон

Все сериалы

все сериалы на PB.wtf

RePack

FAR CRY 5
  

Два лика января / The Two Faces of January (Хуссейн Амини / Hossein Amini) [2014, Великобритания, США, Франция, триллер, WEB-DLRip, Любительский (одноголосый)[datynet] pb.wtf

Два лика января через торрент pb.wtf

Размер: 1.28 GB | Добавлен: 6 лет 1 мес. назад | Торрент скачан:156 раз
Скачать  

05-09-2014 11:40 Два лика января Скачать торрент  

Два лика января / The Two Faces of January


  • Год выпуска: 2014
  • Страна: Великобритания, США, Франция
  • Жанр: триллер
  • Продолжительность: 01:36:54
  • Перевод: Любительский (одноголосый)[datynet]

  • Режиссер: Хуссейн Амини / Hossein Amini
  • В ролях:

    Кирстен Данст (Colette MacFarland), Вигго Мортенсен (Chester MacFarland), Оскар Айзек (Rydal), Дэйзи Беван (Lauren), Дэвид Уоршофски (Paul Vittorio), Промитеас Алиферопулос (Young Musician), Иигит Озшенер (Yahya), Сократ Алафоуцос (Customs Hall Policeman), Никос Мавракис (Greek Young Man On Boat), Озан Тас (Hotelier), Евгения Димитропулу (Airline Agent), Джеймс Собол Келли (FBI Agent)

  • Описание:
    Начало 60-х 20-го века. В Афины приезжает блестящая гламурная пара - харизматичный Честер МакФарланд и его молодая жена Колетта. Во время осмотра Акрополя они знакомятся с юным американским гидом Райдалом. Паре есть что скрывать, когда они видятся снова, Честер просит Райдола помочь избавиться от трупа незнакомца, который якобы напал на него.
  • Рейтинг:



  • Качество: WEB-DLRip
  • Формат: :AVI
  • Видео кодек: XviD
  • Аудио кодек: MP3
  • Видео: 720x304 (2.35:1), 1690 kbps, 23,976 fps, 0,322 bpp
  • Аудио: 2.0 / 44 kHz / 192 kbps /
  • Релиз от: GEKADOL
    Не нашли то, что искали? Для вас "Стол заказов" "Жмём сюда!"

    Код:

    General
    Complete name                            : I:\The.Two.Faces.of.January.2014.L1.WEBDLRi.avi
    Format                                   : AVI
    Format/Info                              : Audio Video Interleave
    File size                                : 1.28 GiB
    Duration                                 : 1h 36mn
    Overall bit rate                         : 1 892 Kbps
    Writing library                          : VirtualDub build 34753/release

    Video
    ID                                       : 0
    Format                                   : MPEG-4 Visual
    Format profile                           : Advanced Simple@L5
    Format settings, BVOP                    : 2
    Format settings, QPel                    : No
    Format settings, GMC                     : No warppoints
    Format settings, Matrix                  : Default (H.263)
    Muxing mode                              : Packed bitstream
    Codec ID                                 : XVID
    Codec ID/Hint                            : XviD
    Duration                                 : 1h 36mn
    Bit rate                                 : 1 690 Kbps
    Width                                    : 720 pixels
    Height                                   : 304 pixels
    Display aspect ratio                     : 2.35:1
    Frame rate                               : 23.976 fps
    Color space                              : YUV
    Chroma subsampling                       : 4:2:0
    Bit depth                                : 8 bits
    Scan type                                : Progressive
    Compression mode                         : Lossy
    Bits/(Pixel*Frame)                       : 0.322
    Stream size                              : 1.14 GiB (89%)
    Writing library                          : XviD 64

    Audio
    ID                                       : 1
    Format                                   : MPEG Audio
    Format version                           : Version 1
    Format profile                           : Layer 3
    Codec ID                                 : 55
    Codec ID/Hint                            : MP3
    Duration                                 : 1h 36mn
    Bit rate mode                            : Constant
    Bit rate                                 : 192 Kbps
    Channel(s)                               : 2 channels
    Sampling rate                            : 44.1 KHz
    Compression mode                         : Lossy
    Stream size                              : 133 MiB (10%)
    Alignment                                : Split accross interleaves
    Interleave, duration                     : 42 ms (1.00 video frame)
    Interleave, preload duration             : 500 ms


    Скриншоты:


    pb.wtf



  • Скачать Два лика января через торрент http://i65.fastpic.ru/big/2014/0905/90/8714f6b133e300fab222072ec64f5790.jpg Скачать фильм Два лика января через торрент бесплантно в хорошем качестве Описание: Начало 60-х 20-го века. В Афины приезжает блестящая гламурная пара - харизматичный Честер МакФарланд и его молодая жена Колетта. ... 9.5 10 6
    Торрент: Зарегистрирован [2014-09-05 11:40] · скачан: 156 раз
    Статус: √ проверено
    Размер: 1.28 GB
    Как cкачать? Как скачать Два лика января через торрент | qTorrent

    % Раздел Тема Автор DL S | L
    Фильмы 2014 [DVDrip, WEB-DLRip, HDrip] [ 1.36 GB ] Два лика января / The Two Faces of January [2014 WEB-DLRip Любительский двухголосый [Студия "Paradox"] Ворон Скачать
    1 | 0

    28-11-2019 20:33  

    Отключить всю рекламу на сайте

      Дорогой пользователь! Огромная просьба, поблагодарите релизера, оцените раздачу и оставьте свои комментарий, если Вы скачали Два лика января через торрент бесплатно! Внесите свою лепту в развитие PiratBit!
      Комментировать посты могут только пользователи прошедшие не сложную регистрацию
      Показать сообщения:    

      Два лика января через торрент
      Скачать бесплатно Два лика января
      Два лика января скачать торрент
      Два лика января смотреть онлайн
      Cкачать фильм Два лика января бесплатно
      Два лика января скачать торрент в хорошем качестве
      Два лика января смотреть онлайн бесплатно в хорошем качестве


      Вы не можете начинать темы
      Вы не можете отвечать на сообщения
      Вы не можете редактировать свои сообщения
      Вы не можете удалять свои сообщения
      Вы не можете голосовать в опросах
      Вы не можете прикреплять файлы к сообщениям
      Вы можете скачивать файлы