Ссылка на приватное зеркало нашего сайта всего за 1$. Внимание количество ограничено!!!

2 сезон

iTunes

1 сезон

1

iTunes

iTunes

iTunes

1 сезон

RePack

30

ИГРА 18+

pack

ВАЖНО

!!Акция!!

Alien_RageХит недели

RePack

MK11
pack

Забери бонус

RePack

jed

!!Акция!!

Alien_Rage

RePack

fifa19

RePack

Assassins Creed: Odyssey

RePack

NEED FOR SPEED™ PAYBACK

4 сезон

9 сезон

Бесстыжие 9 сезон

Все сериалы

все сериалы на PB.wtf

RePack

FAR CRY 5
  

Чао, Федерико! Серия 1 из 4 (Елена Новикова) [2014, Россия, комедия, SATRip) pb.wtf

Чао, Федерико! Серия 1 из 4 через торрент pb.wtf

Размер: 513 MB | Добавлен: 6 лет 1 мес. назад | Торрент скачан:51 раз
Скачать  

05-09-2014 12:25 Чао, Федерико! Серия 1 из 4 Скачать торрент  

Чао, Федерико!


  • Год выпуска: 2014
  • Страна: Россия
  • Жанр: комедия
  • Продолжительность: 00:43:49
  • Перевод: Не требуется

  • Режиссер: Елена Новикова
  • В ролях:

    Сергей Баталов (Василий Иванов), Ольга Машная (Галина Иванова), Галина Сазонова (Алина), Виктор Добронравов, Андрей Бурковский, Виктор Логинов, Андрей Заводюк (Валерий), Антонио Виллани (Франко)

  • Описание:
    Ворчливый пенсионер Василий Иванов и его жена Галина получают от детей на годовщину свадьбы подарок - путешествие в Италию. Вася уже как год на пенсии, и безделье его очень сильно тяготит, кроме того, у него проблемы с сердцем, так что жена запрещает ему напрягаться, от чего он ворчит еще больше. Тур Ивановы выбирают максимально бюджетный, чтобы не доставлять хлопот детям, и отправляются в путешествие. В аэропорту Вася и Галина знакомятся со своими сверстниками Валерием и Алиной, которые тоже летят в Италию. Но стоит женщинам отвернуться, как заядлый рыбак Вася и ученый-ихтиолог Валера вдрызг ссорятся! Так что начало путешествия у Ивановых не задается.
    В это время в Москве их «непутевый» зять Игорь расследует дело о мошенничестве. Он возлагает на него большие надежды, думает, что за раскрытие его повысят, и он докажет своей семье (и в первую очередь тестю), что чего-то стоит!..
  • Рейтинг:



  • Качество: SATRip
  • Формат: :AVI
  • Видео кодек: DivX 5
  • Аудио кодек: MP3
  • Видео: 720x400 (16:9), 1499 kbps, 25 fps, 0,208 bpp
  • Аудио: 2.0 / 48 kHz / 128 kbps
  • Релиз от: GEKADOL
    Не нашли то, что искали? Для вас "Стол заказов" "Жмём сюда!"

    Код:

    General
    Complete name                            : I:\Chao.Federiko.01.SATRip.avi
    Format                                   : AVI
    Format/Info                              : Audio Video Interleave
    File size                                : 513 MiB
    Duration                                 : 43mn 49s
    Overall bit rate                         : 1 638 Kbps
    Writing library                          : VirtualDub build 35491/release

    Video
    ID                                       : 0
    Format                                   : MPEG-4 Visual
    Format settings, BVOP                    : 1
    Format settings, QPel                    : No
    Format settings, GMC                     : No warppoints
    Format settings, Matrix                  : Default (H.263)
    Muxing mode                              : Packed bitstream
    Codec ID                                 : DX50
    Codec ID/Hint                            : DivX 5
    Duration                                 : 43mn 49s
    Bit rate                                 : 1 500 Kbps
    Width                                    : 720 pixels
    Height                                   : 400 pixels
    Display aspect ratio                     : 16:9
    Frame rate                               : 25.000 fps
    Color space                              : YUV
    Chroma subsampling                       : 4:2:0
    Bit depth                                : 8 bits
    Scan type                                : Progressive
    Compression mode                         : Lossy
    Bits/(Pixel*Frame)                       : 0.208
    Stream size                              : 470 MiB (92%)
    Writing library                          : DivX 6.8.5 (UTC 2009-08-20)

    Audio
    ID                                       : 1
    Format                                   : MPEG Audio
    Format version                           : Version 1
    Format profile                           : Layer 3
    Mode                                     : Joint stereo
    Mode extension                           : MS Stereo
    Codec ID                                 : 55
    Codec ID/Hint                            : MP3
    Duration                                 : 43mn 49s
    Bit rate mode                            : Constant
    Bit rate                                 : 128 Kbps
    Channel(s)                               : 2 channels
    Sampling rate                            : 48.0 KHz
    Compression mode                         : Lossy
    Stream size                              : 40.1 MiB (8%)
    Alignment                                : Split accross interleaves
    Interleave, duration                     : 40 ms (1.00 video frame)
    Interleave, preload duration             : 500 ms


    Скриншоты:


    pb.wtf



  • Скачать Чао, Федерико! Серия 1 из 4 через торрент http://i63.fastpic.ru/big/2014/0905/4e/4adfd007c58d8cd1538bd4f62707b44e.jpg Скачать фильм Чао, Федерико! Серия 1 из 4 через торрент бесплантно в хорошем качестве Описание: Ворчливый пенсионер Василий Иванов и его жена Галина получают от детей на годовщину свадьбы подарок - путешествие в Италию. Вася ... 6.5 10 4
    Торрент: Зарегистрирован [2014-09-05 12:25] · скачан: 51 раз
    Статус: √ проверено
    Размер: 513 MB
    Как cкачать? Как скачать Чао, Федерико! Серия 1 из 4 через торрент | qTorrent

    % Раздел Тема Автор DL S | L
    Наши сериалы [ 2.15 GB ] Чао Федерико! / Серии 1-4 из 4 [2014 Россия HDTVRip) GEKADOL Скачать
    1 | 0

    28-11-2019 20:33  

    Отключить всю рекламу на сайте

      Дорогой пользователь! Огромная просьба, поблагодарите релизера, оцените раздачу и оставьте свои комментарий, если Вы скачали Чао, Федерико! Серия 1 из 4 через торрент бесплатно! Внесите свою лепту в развитие PiratBit!
      Комментировать посты могут только пользователи прошедшие не сложную регистрацию
      Показать сообщения:    

      Чао, Федерико! Серия 1 из 4 через торрент
      Скачать бесплатно Чао, Федерико! Серия 1 из 4
      Чао, Федерико! Серия 1 из 4 скачать торрент
      Чао, Федерико! Серия 1 из 4 смотреть онлайн
      Cкачать фильм Чао, Федерико! Серия 1 из 4 бесплатно
      Чао, Федерико! Серия 1 из 4 скачать торрент в хорошем качестве
      Чао, Федерико! Серия 1 из 4 смотреть онлайн бесплатно в хорошем качестве


      Вы не можете начинать темы
      Вы не можете отвечать на сообщения
      Вы не можете редактировать свои сообщения
      Вы не можете удалять свои сообщения
      Вы не можете голосовать в опросах
      Вы не можете прикреплять файлы к сообщениям
      Вы можете скачивать файлы