1 сезон

1 сезон

iTunes

1

КиноПоиск HD

Кинопоиск HD

iTunes

13

1 сезон

RePack

30

Новинка

ВАЖНО

ИГРА 18+

pack

RePack

MK11
pack

Легкие деньги

RePack

jed

RePack

fifa19

RePack

RDR2

RePack

NEED FOR SPEED™ PAYBACK

4 сезон

9 сезон

Бесстыжие 9 сезон

Все сериалы

все сериалы на PB.wtf

RePack

FAR CRY 5
  
Magnet ссылка

Коробка / Le carton (Шарль Немес) [2004 г., комедия, драма, DVDRip, Дубляж, Лицензия] pb.wtf

Коробка через торрент pb.wtf

Размер: 748 MB | Добавлен: 6 лет 7 мес. назад | Торрент скачан:113 раз
Скачать  

05-09-2014 13:41 Коробка Скачать торрент  

Коробка / Le carton
Год выпуска: 2004
Страна: Франция
Жанр: комедия, драма
Продолжительность: 01:25:55
Перевод: Дубляж, Лицензия
Тип релиза: Лицензия
Субтитры: нет

Режиссер: Шарль Немес
Продюссер: Себастьен Фечнер, Николас Ваннье
Сценарий: Клеман Мишель, Себастьен Фечнер

Премьера в мире: 6 октября 2004, ...

зрителям, достигшим 16 лет



В ролях: Венсан Дезанья, Бруно Саломон, Армель Дойч, Фред Тесто, Омар Си, Катрин Бенгиги, Эмили Шеснэ, Сесилия Кара, Санта Озина, Джамель Бурра

Описание: Антуан, немного легкомысленный и рассеянный студент, разбужен голосом своей домовладелицы, которая сообщает, что он должен освободить жилплощадь к 13 часам: собрать свои шмотки и убираться восвояси. Для Антуана это катастрофа. Его квартира — это сумасшедший кавардак.Единственный способ успеть вовремя и не потерять залог за квартиру на три месяца — позвать на помощь друзей. Чтобы выпутаться из всего этого, Антуану придется преодолеть лабиринт невероятных сложностей, которые препятствуют переезду. День задается ужасным, а тут еще вездесущие полицейские, которые постоянно присматривают за друзьями. И весь этот кошмар нужно стойко вынести, чтобы, наконец, выяснить, что зачастую самое неудобное в переезде — это сами друзья!..

Качество: DVDRip
Формат: AVI
Видео кодек: XviD
Аудио кодек: AC3
Видео: 688x288 (2.39:1), 25 fps, XviD build 73 ~1078 kbps avg, 0.22 bit/pixel
Аудио#1: 48 kHz, MPEG Layer 3, 2 ch, ~128.00 kbps avg
Релиз от: Deadmauvlad Скачать Семпл
скриншот   скриншот   скриншот   скриншот   скриншот   скриншот  

Общее
Полное имя : C:\Users\Deadmau95\Documents\K0r0bka.2003DVDRip.Deadmauvlad.avi
Формат : AVI
Формат/Информация : Audio Video Interleave
Размер файла : 748 Мбайт
Продолжительность : 1 ч. 25 м.
Общий поток : 1216 Кбит/сек
Название фильма : K0r0bka.2003DVDRip.Deadmauvlad
Режиссёр : Deadmauvlad
Жанр : драма
Программа кодирования : VirtualDubMod 1.5.10.3 | www.virtualdub-fr.org || (build 2550/release)
Формат оригинала/Имя : Фильм
Правообладатель : Goldenshara

Видео
Идентификатор : 0
Формат : MPEG-4 Visual
Профиль формата : Advanced Simple@L5
Параметр BVOP формата : 1
Параметр QPel формата : Нет
Параметр GMC формата : Без точки перехода
Параметр матрицы формата : Выборочная
Идентификатор кодека : XVID
Идентификатор кодека/Подсказка : XviD
Продолжительность : 1 ч. 25 м.
Битрейт : 1079 Кбит/сек
Ширина : 688 пикселей
Высота : 288 пикселей
Соотношение сторон : 2,40:1
Частота кадров : 25,000 кадров/сек
Цветовое пространство : YUV
Субдискретизация насыщенности : 4:2:0
Битовая глубина : 8 бит
Тип развёртки : Прогрессивная
Метод сжатия : С потерями
Бит/(Пиксели*Кадры) : 0.218
Размер потока : 663 Мбайт (89%)
Библиотека кодирования : XviD 73

Аудио
Идентификатор : 1
Формат : MPEG Audio
Версия формата : Version 1
Профиль формата : Layer 3
Идентификатор кодека : 55
Идентификатор кодека/Подсказка : MP3
Продолжительность : 1 ч. 25 м.
Вид битрейта : Постоянный
Битрейт : 128 Кбит/сек
Каналы : 2 канала
Частота : 48,0 КГц
Метод сжатия : С потерями
Размер потока : 78,7 Мбайт (11%)
Выравнивание : Соединение по промежуткам
Продолжительность промежутка : 40 мс. (1,00 видеокадр)
Время предзагрузки промежутка : 504 мс.
Библиотека кодирования : LAME3.99r
Настройки программы : -m s -V 4 -q 2 -lowpass 17 -b 128

pb.wtf



Скачать Коробка через торрент https://pic.kartinco.top/images/6/7nw6f.jpg Скачать фильм Коробка через торрент бесплантно в хорошем качестве Описание: Антуан, немного легкомысленный и рассеянный студент, разбужен голосом своей домовладелицы, которая сообщает, что он должен ... 10 10 6
Торрент: Зарегистрирован [2014-09-05 13:41] · скачан: 113 раз
Статус: √ проверено
Размер: 748 MB
Как cкачать? Как скачать Коробка через торрент | UTorrent

% Раздел Тема Автор DL S | L
Фильмы (DVD фильмы) [ 3.51 GB ] Коробка / Le carton [2004 DVD-5 ] Se7ven95 Скачать
1 | 0
Фильмы 2001-2005 [ 1.36 GB ] Коробка / Le carton [2004 DVDRip ] Se7ven95 Скачать
1 | 0
Фильмы 2001-2005 [ 1.37 GB ] Коробка / Le carton [2004 DVDRip лицензия] metanoia Скачать
1 | 0

28-11-2019 20:33  

Отключить всю рекламу на сайте

07-09-2014 05:13 Коробка Скачать торрент  

Отличный фильмpb.wtf



    Дорогой пользователь! Огромная просьба, поблагодарите релизера, оцените раздачу и оставьте свои комментарий, если Вы скачали Коробка через торрент бесплатно! Внесите свою лепту в развитие PiratBit!
    Комментировать посты могут только пользователи прошедшие не сложную регистрацию
    Показать сообщения:    

    Коробка через торрент
    Скачать бесплатно Коробка
    Коробка скачать торрент
    Коробка смотреть онлайн
    Cкачать фильм Коробка бесплатно
    Коробка скачать торрент в хорошем качестве
    Коробка смотреть онлайн бесплатно в хорошем качестве


    Вы не можете начинать темы
    Вы не можете отвечать на сообщения
    Вы не можете редактировать свои сообщения
    Вы не можете удалять свои сообщения
    Вы не можете голосовать в опросах
    Вы не можете прикреплять файлы к сообщениям
    Вы можете скачивать файлы