2 сезон

iTunes

MVO

1

2 сезон

iTunes

iTunes

1 сезон

RePack

30

Новинка

ВАЖНО

ИГРА 18+

pack

RePack

MK11
pack

Легкие деньги

RePack

jed

RePack

fifa19

RePack

RDR2

RePack

NEED FOR SPEED™ PAYBACK

4 сезон

9 сезон

Бесстыжие 9 сезон

Все сериалы

все сериалы на PB.wtf

RePack

FAR CRY 5

Anonymous, добрый вечер, мы не успеваем собрать деньги на оплату серверов за декабрь и январь, помогите нам пожалуйста в это трудное время. В качестве благодарности мы отключим Вам всю рекламу на сайте (укажите свой ник в строку Ваше имя)!

×
  
Magnet ссылка

Повар на колесах / Chef (Джон Фавро) [2014 г., комедия, драма, семейный, HDRip, Дубляж] [НТВ+] pb.wtf

Повар на колесах через торрент pb.wtf

Размер: 917 MB | Добавлен: 6 лет 4 мес. назад | Торрент скачан:42 раза
Скачать  

05-09-2014 13:42 Повар на колесах Скачать торрент  

Повар на колесах / Chef

Год выпуска: 2014
Страна: США
Производство: Aldamisa Entertainment, Kilburn Media
Жанр: Kомедия, драма, семейный
Продолжительность: 01:49:54
Перевод: Дубляж [НТВ+]

Режиссер: Джон Фавро
Продюссер: Сергей Беспалов, Джон Фавро, Карен Джонсон
Сценарий: Джон Фавро
Бюджет: $30 701 248
Премьера в мире: 28 апреля 2014

IMDB 7.50 (22 213)


В ролях: Джон Фавро, Джон Легуизамо, Бобби Каннавале, Эмджей Энтони, Скарлетт Йоханссон, Дастин Хоффман, София Вергара, Оливер Платт, Эми Седарис, Роберт Дауни мл., Александр Погребняк, Михаил Тишин, Анна Соболева, Владислав Пупков, Виктория Хмельницкая

Описание: Сюжет фильма разворачивается вокруг шеф-повара Карла Каспера, потерявшего работу в известном ресторане Лос-Анджелеса. Карл решает организовать сеть закусочных на колесах, чтобы отыскать потерянное кулинарное вдохновение и попутно наладить отношения с семьей.

Сэмпл



Качество: HDRip
Формат: MP4
Видео кодек: AVC
Аудио кодек: AAC LC
Видео: AVC, 800x336 (2.35:1), 25.000 fps, 968 Kbps (0.144 bit/pixel)
Аудио: AAC LC, 48.0 KHz, 2 ch, 192 Kbps, VBR
x264 [info]: profile High, level 4.1
x264 [info]: frame I:1639 Avg QP:13.17 size: 49637
x264 [info]: frame P:38501 Avg QP:16.53 size: 11333
x264 [info]: frame B:124716 Avg QP:20.30 size: 2248
x264 [info]: consecutive B-frames: 1.8% 2.2% 5.0% 55.2% 10.7% 18.2% 2.3% 2.9% 0.3% 0.3% 0.2% 0.2% 0.6%
x264 [info]: ref P L0: 52.7% 12.3% 13.9% 6.1% 4.4% 3.7% 2.9% 1.9% 1.9% 0.1% 0.0%
x264 [info]: ref B L0: 80.9% 8.8% 4.5% 2.0% 1.6% 1.2% 0.7% 0.3%
x264 [info]: ref B L1: 94.1% 5.9%
x264 [info]: kb/s:968.20
Format : MPEG-4
Format profile : Base Media
Codec ID : isom
File size : 917 MiB
Duration : 1h 49mn
Overall bit rate mode : Variable
Overall bit rate : 1 166 Kbps
Writing application : Lavf53.19.0

Video
ID : 1
Format : AVC
Format/Info : Advanced Video Codec
Format profile : High@L4.1
Format settings, CABAC : Yes
Format settings, ReFrames : 9 frames
Codec ID : avc1
Codec ID/Info : Advanced Video Coding
Duration : 1h 49mn
Bit rate : 968 Kbps
Width : 800 pixels
Height : 336 pixels
Display aspect ratio : 2.40:1
Frame rate mode : Constant
Frame rate : 25.000 fps
Color space : YUV
Chroma subsampling : 4:2:0
Bit depth : 8 bits
Scan type : Progressive
Bits/(Pixel*Frame) : 0.144
Stream size : 761 MiB (83%)
Writing library : x264 core 130 r2273 b3065e6
Encoding settings : cabac=1 / ref=9 / deblock=1:-3:-2 / analyse=0x3:0x133 / me=umh /
subme=9 / psy=1 / psy_rd=1.00:0.00 / mixed_ref=1 / me_range=24 / chroma_me=1 / trellis=2 /
8x8dct=1 / cqm=0 / deadzone=21,11 / fast_pskip=1 / chroma_qp_offset=-2 / threads=3 /
lookahead_threads=1 / sliced_threads=0 / nr=0 / decimate=1 / interlaced=0 / bluray_compat=0 /
constrained_intra=0 / bframes=12 / b_pyramid=2 / b_adapt=2 / b_bias=0 / direct=1 / weightb=1 /
open_gop=0 / weightp=2 / keyint=250 / keyint_min=25 / scenecut=40 / intra_refresh=0 /
rc_lookahead=60 / rc=crf / mbtree=1 / crf=17.0 / qcomp=0.60 / qpmin=0 / qpmax=69 / qpstep=4 /
ip_ratio=1.40 / aq=1:1.00

Audio
ID : 2
Format : AAC
Format/Info : Advanced Audio Codec
Format profile : LC
Codec ID : 40
Duration : 1h 49mn
Bit rate mode : Variable
Bit rate : 192 Kbps
Channel(s) : 2 channels
Channel positions : Front: L R
Sampling rate : 48.0 KHz
Compression mode : Lossy
Delay relative to video : 80ms
Stream size : 151 MiB (16%)
pb.wtf



Скачать Повар на колесах через торрент http://i68.fastpic.ru/big/2014/0905/dd/dd406c190a10ffcc1744081c773bd5dd.png Скачать фильм Повар на колесах через торрент бесплантно в хорошем качестве Описание: Сюжет фильма разворачивается вокруг шеф-повара Карла Каспера, потерявшего работу в известном ресторане Лос-Анджелеса. Карл решает ... 10 10 3
Торрент: Зарегистрирован [2014-09-05 13:42] · скачан: 42 раз
Статус: √ проверено
Размер: 917 MB
Как cкачать? Как скачать Повар на колесах через торрент | UTorrent

% Раздел Тема Автор DL S | L
Фильмы [HD 720p, 1080p] (Хороший звук DUB, MVO) [ 10.6 GB ] Повар на колесах / Chef [2014 BDRip 1080p Dub ] от R.G. HD-Films Seedtank Скачать
1 | 0
Фильмы (Blu-ray, BD-Remux, HDDVD) [ 20.26 GB ] Повар на колесах / Chef [2014 BD-Remux [НТВ Бумер Скачать
1 | 0
Фильмы [HD 720p, 1080p] (Хороший звук DUB, MVO) [ 5.76 GB ] Повар на колесах / Chef [2014 BDRip 720p [НТВ Ворон Скачать
1 | 0
Фильмы 2014 [DVDrip, WEB-DLRip, HDrip] [ 2.05 GB ] Повар на колесах / Chef [2014 HDRip [НТВ Ворон Скачать
1 | 0
Фильмы 2014 [DVDrip, WEB-DLRip, HDrip] [ 1.37 GB ] Повар на колесах / Chef [2014 HDRip [НТВ Ворон Скачать
1 | 0

28-11-2019 20:33  

Отключить всю рекламу на сайте

    Дорогой пользователь! Огромная просьба, поблагодарите релизера, оцените раздачу и оставьте свои комментарий, если Вы скачали Повар на колесах через торрент бесплатно! Внесите свою лепту в развитие PiratBit!
    Комментировать посты могут только пользователи прошедшие не сложную регистрацию
    Показать сообщения:    

    Повар на колесах через торрент
    Скачать бесплатно Повар на колесах
    Повар на колесах скачать торрент
    Повар на колесах смотреть онлайн
    Cкачать фильм Повар на колесах бесплатно
    Повар на колесах скачать торрент в хорошем качестве
    Повар на колесах смотреть онлайн бесплатно в хорошем качестве


    Вы не можете начинать темы
    Вы не можете отвечать на сообщения
    Вы не можете редактировать свои сообщения
    Вы не можете удалять свои сообщения
    Вы не можете голосовать в опросах
    Вы не можете прикреплять файлы к сообщениям
    Вы можете скачивать файлы