Ссылка на приватное зеркало всего за 1$. Внимание количество ограничено!!!

iTunes

1+1

iTunes

мы

WEB-DL

1

iTunes

Чернобыль

iTunes

Ральф против интернета

Лицензия

ПШазам

Лицензия

Оно 2

Лицензия

30
pack

Вам бонус

ВАЖНО

!!Акция!!

Alien_RageХит недели

RePack

Resident Evil 21

ИГРА 18+

pack

RePack

jed

!!Акция!!

Alien_Rage

RePack

fifa19

RePack

Assassins Creed: Odyssey

RePack

NEED FOR SPEED™ PAYBACK

3 сезон

9 сезон

Бесстыжие 9 сезон

Все сериалы

все сериалы на PB.wtf

RePack

FAR CRY 5
Ребята, катастрофически не хватает 1900р. для оплаты серверов за Октябрь (всвязи с блокировками трафик упал в 3 раза), 1-2р., выручайте.
  

Дитя божье / Child of God (Джеймс Франко / James Franco) [2013, США, триллер, драма, криминал, HDRip, Авторский (одноголосый)[Алексей Матвеев "Doctor_Joker"] pb.wtf

Дитя божье через торрент pb.wtf

Размер: 1.46 GB | Добавлен: 5 лет 3 мес. назад | Торрент скачан:204 раза
Скачать  

06-09-2014 03:20 Дитя божье Скачать торрент  

Дитя божье / Child of God


  • Год выпуска: 2013
  • Страна: США
  • Жанр: триллер, драма, криминал
  • Продолжительность: 01:40:04
  • Перевод: Авторский (одноголосый)[Алексей Матвеев "Doctor_Joker"]

  • Режиссер: Джеймс Франко / James Franco
  • В ролях:

    Скотт Хэйз (Lester Ballard), Тим Блейк Нельсон (Sheriff Fate), Джеймс Франко (Jerry), Джим Пэррак (Deputy Cotton), Цейра Даниэль (Salesgirl), Винс Джоливетт (Ernest), Фэллон Гудсон (Girly), Брайан Лэлли (John Greer), Нина Лджети (Victim #1), Джереми Эмблер (Boy With The Rifle), Терренс Хафф (The Pitchman), Вэйд Уильямс (рассказчик)

  • Описание:
    Фильм рассказывает о вышедшем на свободу заключенном Лестере Балларде, который живет в восточном Теннесси не совсем нормальной жизнью: тут вам и некрофилия, и другие нарушения закона и морали. Постепенно Баллард превращается в жестокого пещерного человека вне социума.
  • Рейтинг:



  • Качество: HDRip
  • Формат: :AVI
  • Видео кодек: XviD
  • Аудио кодек: AC3
  • Видео: 720x400 (16:9), 1699 kbps, 25 fps, 0,236 bpp
  • Аудио: 5.1 / 48 kHz / 384 kbps / 16 bit
  • Релиз от: GEKADOL
    Не нашли то, что искали? Для вас "Стол заказов" "Жмём сюда!"

    Код:

    General
    Complete name                            : I:\Bojie.Dite.A1.2013.A1.HDRip.1.46Gb_.avi
    Format                                   : AVI
    Format/Info                              : Audio Video Interleave
    File size                                : 1.46 GiB
    Duration                                 : 1h 40mn
    Overall bit rate                         : 2 093 Kbps
    Writing application                      : VirtualDubMod 1.5.10.2 (build 2540/release)
    Writing library                          : VirtualDubMod build 2540/release

    Video
    ID                                       : 0
    Format                                   : MPEG-4 Visual
    Format profile                           : Advanced Simple@L5
    Format settings, BVOP                    : 2
    Format settings, QPel                    : Yes
    Format settings, GMC                     : No warppoints
    Format settings, Matrix                  : Default (MPEG)
    Codec ID                                 : XVID
    Codec ID/Hint                            : XviD
    Duration                                 : 1h 40mn
    Bit rate                                 : 1 700 Kbps
    Width                                    : 720 pixels
    Height                                   : 400 pixels
    Display aspect ratio                     : 16:9
    Frame rate                               : 25.000 fps
    Color space                              : YUV
    Chroma subsampling                       : 4:2:0
    Bit depth                                : 8 bits
    Scan type                                : Progressive
    Compression mode                         : Lossy
    Bits/(Pixel*Frame)                       : 0.236
    Stream size                              : 1.19 GiB (81%)
    Writing library                          : XviD 1.2.1 (UTC 2008-12-04)

    Audio
    ID                                       : 1
    Format                                   : AC-3
    Format/Info                              : Audio Coding 3
    Mode extension                           : CM (complete main)
    Codec ID                                 : 2000
    Duration                                 : 1h 40mn
    Bit rate mode                            : Constant
    Bit rate                                 : 384 Kbps
    Channel(s)                               : 6 channels
    Channel positions                        : Front: L C R, Side: L R, LFE
    Sampling rate                            : 48.0 KHz
    Bit depth                                : 16 bits
    Compression mode                         : Lossy
    Stream size                              : 275 MiB (18%)
    Alignment                                : Split accross interleaves
    Interleave, duration                     : 40 ms (1.00 video frame)
    Interleave, preload duration             : 500 ms


    Скриншоты:


    pb.wtf



  • Скачать Дитя божье через торрент http://i65.fastpic.ru/big/2014/0906/e1/17bbbb8e95bfe8a3cbb95fdcb90075e1.jpg Скачать фильм Дитя божье через торрент бесплантно в хорошем качестве Описание: Фильм рассказывает о вышедшем на свободу заключенном Лестере Балларде, который живет в восточном Теннесси не совсем нормальной ... 8.6 10 5
    Торрент: Зарегистрирован [2014-09-06 03:20] · скачан: 204 раз
    Статус: √ проверено
    Размер: 1.46 GB
    Как cкачать? Как скачать Дитя божье через торрент | qTorrent

    % Раздел Тема Автор DL S | L
    Арт-хаус и авторское кино [ 4.55 GB ] Дитя божье / Child of God [2013 BDRip 720p Авторский [Алексей Матвеев] Ворон Скачать
    1 | 0

    28-11-2019 20:33  

    Отключить всю рекламу на сайте

      Дорогой пользователь! Огромная просьба, поблагодарите релизера, оцените раздачу и оставьте свои комментарий, если Вы скачали Дитя божье через торрент бесплатно! Внесите свою лепту в развитие PiratBit!
      Комментировать посты могут только пользователи прошедшие не сложную регистрацию
      Показать сообщения:    

      Дитя божье через торрент
      Скачать бесплатно Дитя божье
      Дитя божье скачать торрент
      Дитя божье смотреть онлайн
      Cкачать фильм Дитя божье бесплатно
      Дитя божье скачать торрент в хорошем качестве
      Дитя божье смотреть онлайн бесплатно в хорошем качестве


      Вы не можете начинать темы
      Вы не можете отвечать на сообщения
      Вы не можете редактировать свои сообщения
      Вы не можете удалять свои сообщения
      Вы не можете голосовать в опросах
      Вы не можете прикреплять файлы к сообщениям
      Вы можете скачивать файлы