1 сезон

3 сезон

iTunes

1

iTunes

MVO

iTunes

13

1 сезон

RePack

30

Deluxe

pack

Лицензия

ВАЖНО

ИГРА 18+

pack

RePack

MK11

RePack

jed

RePack

fifa19

RePack

RDR2

RePack

NEED FOR SPEED™ PAYBACK

4 сезон

9 сезон

Бесстыжие 9 сезон

Все сериалы

все сериалы на PB.wtf

RePack

FAR CRY 5

Anonymous, доброй ночи, мы катастрофически не успеваем собрать деньги на оплату серверов, помогите нам пожалуйста 5,10,15р., для нас важна любая помощь . В качестве благодарности мы отключим Вам всю рекламу на сайте (укажите свой ник в строку Ваше имя)!

×
  
Magnet ссылка

13-й район: Кирпичные особняки / Brick Mansions (Камиль Деламарр / Camille Delamarre) [2014, боевик, криминал, DVD9] R5 pb.wtf

13-й район: Кирпичные особняки через торрент pb.wtf

Размер: 4.78 GB | Добавлен: 6 лет 10 мес. назад | Торрент скачан:64 раза
Скачать  

06-09-2014 08:12 13-й район: Кирпичные особняки Скачать торрент  


13-й район: Кирпичные особняки / Brick Mansions
«Undercover and never Outgunned»
Страна: Франция, Канада
Студия: Brick Mansions Productions Inc, Canal+ [fr], Ciné, D8, EuropaCorp
Жанр: боевик, криминал
Год выпуска: 2014
Мировая премьера: 23 апреля 2014
Российская премьера: 8 мая 2014
Дата выхода DVD: 2 сентября 2014
Дата выхода Blu-Ray: 2 сентября 2014
Продолжительность: 01:26:33
Перевод: Профессиональный (дублированный) [Лицензия]
Cубтитры: нет
Оригинальная аудиодорожка: нет
Режиссер: Камиль Деламарр / Camille Delamarre
В ролях: Пол Уокер, Давид Белль, RZA, Гучи Бой, Каталина Денис, Аиша Исса, Карло Рота, Андреас Апергис, Ричард Земан, Роберт Мэйллет...
Описание: История детектива под прикрытием, ищущего оружие массового уничтожения, похищенное наркодилером гетто Кирпичные дома. Детектив обращается за помощью к знатоку района Лино, единственному человеку, который не боится бандитов.
Бонусы: нет

Релиз группы:
Качество: DVD9 R5
Формат: DVD-Video
Видео кодек: MPEG2
Аудио кодек: AC3
Видео: PAL 16:9 (720x576(0.605)) MPEG Video, 25,000 кадр/сек, 6276 Кбит/сек
Аудио #1: Russian (Dolby AC3, 6 ch) 448 Кбит/сек, 48,0 КГц
Аудио #2: Russian (DTS, 5 ch) 768 Кбит/сек, 48,0 КГц



Title: 13-j.rajon.Kirpichnye.osobnjaki.2014.DVD9
Size: 4.78 Gb ( 5 015 560,00 KBytes ) - DVD-9
Enabled regions: 1, 2, 3, 4, 5, 6, 7, 8

VTS_01 :
Play Length: 00:00:25+{00:00:25}+{00:00:25}
Video: PAL 4:3 (720x576) VBR
Audio:
Russian (Dolby AC3, 6 ch)
English (Dolby AC3, 6 ch)
English (Dolby AC3, 6 ch)

VTS_02 :
Play Length: 01:26:33
Video: PAL 16:9 (720x576) VBR, Auto Pan&Scan, Auto Letterboxed
Audio:
Russian (Dolby AC3, 6 ch)
Russian (DTS, 5 ch)

* Menus Information *

VIDEO_TS Menu
Video:
PAL 16:9 (720x576) VBR
Auto Pan&Scan, Auto Letterboxed
English Language Unit :
Title Menu

VTS_01 Menu
Video:
PAL 16:9 (720x576) VBR
Auto Letterboxed
Audio:
Not specified (Dolby AC3, 2 ch)
English Language Unit :
Root Menu
Chapter (PTT) Menu

VTS_02 Menu
Video:
PAL 4:3 (720x576) VBR
English Language Unit :
Root Menu
Audio Menu
Chapter (PTT) Menu
Общее
Полное имя : D:\Новинки 2014\13-j.rajon.Kirpichnye.osobnjaki.2014.DVD9\VIDEO_TS\VTS_02_2.VOB
Формат : MPEG-PS
Размер файла : 1024 Мбайт
Продолжительность : 18 м.
Режим общего битрейта : Переменный
Общий поток : 7631 Кбит/сек

Видео
Идентификатор : 224 (0xE0)
Формат : MPEG Video
Версия формата : Version 2
Профиль формата : Main@Main
Параметр BVOP формата : Да
Параметр матрицы формата : Выборочная
Параметр GOP формата : Variable
Продолжительность : 18 м.
Вид битрейта : Переменный
Битрейт : 6276 Кбит/сек
Максимальный битрейт : 8000 Кбит/сек
Ширина : 720 пикселей
Высота : 576 пикселей
Соотношение сторон : 16:9
Частота кадров : 25,000 кадров/сек
Стандарт вещания : PAL
Цветовое пространство : YUV
Субдискретизация насыщенности : 4:2:0
Битовая глубина : 8 бит
Тип развёртки : Прогрессивная
Метод сжатия : С потерями
Бит/(Пиксели*Кадры) : 0.605
Временной код первого кадра : 00:19:46:00
Оригинал временного кода : Group of pictures header
Размер потока : 842 Мбайт (82%)

Аудио #1
Идентификатор : 189 (0xBD)-128 (0x80)
Формат : AC-3
Формат/Информация : Audio Coding 3
Расширение режима : CM (complete main)
Параметр Endianness формата : Big
Режим смешивания : DVD-Video
Продолжительность : 18 м.
Вид битрейта : Постоянный
Битрейт : 448 Кбит/сек
Каналы : 6 каналов
Расположение каналов : Front: L C R, Side: L R, LFE
Частота : 48,0 КГц
Битовая глубина : 16 бит
Метод сжатия : С потерями
Задержка видео : -736 мс.
Размер потока : 60,1 Мбайт (6%)

Аудио #2
Идентификатор : 189 (0xBD)-137 (0x89)
Формат : DTS
Формат/Информация : Digital Theater Systems
Режим : 16
Параметр Endianness формата : Big
Режим смешивания : DVD-Video
Продолжительность : 18 м.
Вид битрейта : Постоянный
Битрейт : 755 Кбит/сек
Каналы : 6 каналов
Расположение каналов : Front: L C R, Side: L R, LFE
Частота : 48,0 КГц
Битовая глубина : 24 бит
Метод сжатия : С потерями
Задержка видео : -779 мс.
Размер потока : 101 Мбайт (10%)










pb.wtf



Скачать 13-й район: Кирпичные особняки через торрент http://i63.fastpic.ru/big/2014/0906/81/f4b622765f6f30d37fffc785d8ee5a81.png Скачать фильм 13-й район: Кирпичные особняки через торрент бесплантно в хорошем качестве Описание: История детектива под прикрытием, ищущего оружие массового уничтожения, похищенное наркодилером гетто Кирпичные дома. Детектив ... 9 10 10
Info! Золотая раздача, скачанное не засчитывается.
Торрент: Зарегистрирован [2014-09-06 08:12] · скачан: 64 раз
Статус: √ проверено
Размер: 4.78 GB
Как cкачать? Как скачать 13-й район: Кирпичные особняки через торрент | UTorrent

% Раздел Тема Автор DL S | L
Фильмы [HD 720p, 1080p] (Хороший звук DUB, MVO) [ 10.03 GB ] 13-й район: Кирпичные особняки / Brick Mansions [2014 BDRip 1080p DUB ] от R.G. HD-Films Seedtank Скачать
1 | 0
T Фильмы 2014 [DVDrip, WEB-DLRip, HDrip] [ 1.42 GB ] 13-й район: Кирпичные особняки / Brick Mansions [2014 WEB-DLRip-AVC Чистый звук Студия "CineLab SoundMix] От R.G. PiratFilms White Smoke Скачать
1 | 0

28-11-2019 20:33  

Отключить всю рекламу на сайте

    Дорогой пользователь! Огромная просьба, поблагодарите релизера, оцените раздачу и оставьте свои комментарий, если Вы скачали 13-й район: Кирпичные особняки через торрент бесплатно! Внесите свою лепту в развитие PiratBit!
    Комментировать посты могут только пользователи прошедшие не сложную регистрацию
    Показать сообщения:    

    13-й район: Кирпичные особняки через торрент
    Скачать бесплатно 13-й район: Кирпичные особняки
    13-й район: Кирпичные особняки скачать торрент
    13-й район: Кирпичные особняки смотреть онлайн
    Cкачать фильм 13-й район: Кирпичные особняки бесплатно
    13-й район: Кирпичные особняки скачать торрент в хорошем качестве
    13-й район: Кирпичные особняки смотреть онлайн бесплатно в хорошем качестве


    Вы не можете начинать темы
    Вы не можете отвечать на сообщения
    Вы не можете редактировать свои сообщения
    Вы не можете удалять свои сообщения
    Вы не можете голосовать в опросах
    Вы не можете прикреплять файлы к сообщениям
    Вы можете скачивать файлы