1 сезон

3 сезон

iTunes

1

Line

MVO

iTunes

13

1 сезон

RePack

30

Deluxe

pack

Лицензия

ВАЖНО

ИГРА 18+

pack

RePack

MK11

RePack

jed

RePack

fifa19

RePack

RDR2

RePack

NEED FOR SPEED™ PAYBACK

4 сезон

9 сезон

Бесстыжие 9 сезон

Все сериалы

все сериалы на PB.wtf

RePack

FAR CRY 5

Anonymous, доброе утро, мы катастрофически не успеваем собрать деньги на оплату серверов, помогите нам пожалуйста 5,10,15р., для нас важна любая помощь . В качестве благодарности мы отключим Вам всю рекламу на сайте (укажите свой ник в строку Ваше имя)!

×
  
Magnet ссылка

WTF! Какого черта? / N'importe qui ( Рафаэль Фридман / Raphaël Frydman) [2014, комедия, DVD5] R5 pb.wtf

WTF! Какого черта? через торрент pb.wtf

Размер: 4.11 GB | Добавлен: 6 лет 10 мес. назад | Торрент скачан:47 раз
Скачать  

06-09-2014 08:15 WTF! Какого черта? Скачать торрент  


WTF! Какого черта? / N'importe qui
Страна: Франция
Студия: Why Not Productions
Жанр: комедия
Год выпуска: 2014
Мировая премьера: 5 марта 2014
Российская премьера: 19 июня 2014
Дата выхода DVD: 9 сентября 2014
Продолжительность: 01:17:32
Перевод: Профессиональный (дублированный) [Лицензия]
Cубтитры: нет
Оригинальная аудиодорожка: нет
Режиссер: Рафаэль Фридман / Raphaël Frydman
В ролях: Реми Гайяр, Патрик Рейналь, Франк Брюно, Элбан Иванофф, Сильвен Катан, Grégory Nardela, Бриджитт Моати, Николь Феррони, Quentin Jodar
Описание: Реми Гайяр — реальный персонаж Всемирной сети, троллер, провокатор, самый популярный комик инета Европы. Полтора миллиарда просмотров и миллионы фанатов. Пришел день, и он решил остепениться: женился, устроился на работу на автостоянке, пообещал беременной жене, что тоже «уходит в декрет» и бросает свои шалости.
Но как заглушить талант и буйство фантазии?! Фанаты не могут допустить его ухода.
Гайяр возвращается!

Бонусы: нет

Релиз группы:
Качество: DVD5 R5
Формат: DVD-Video
Видео кодек: MPEG2
Аудио кодек: AC3
Видео: PAL 16:9 (720x576(0.647)) MPEG Video, 25,000 кадр/сек, 6707 Кбит/сек
Аудио: Russian (Dolby AC3, 6 ch) 384 Кбит/сек, 48,0 КГц



Title: WTF!.Kakogo.cherta.2014.DVD5
Size: 4.11 Gb ( 4 304 538,00 KBytes ) - DVD-5
Enabled regions: 1, 2, 3, 4, 5, 6, 7, 8

VTS_01 :
Play Length: 01:17:32
Video: PAL 16:9 (720x576) VBR, Auto Letterboxed
Audio:
Russian (Dolby AC3, 6 ch)

VTS_02 :
Play Length: 00:09:03
Video: PAL 16:9 (720x576) VBR, Auto Letterboxed
Audio:
Not specified (Dolby AC3, 2 ch)

* Menus Information *

VIDEO_TS Menu
Video:
PAL 16:9 (720x576) VBR
Auto Pan&Scan
Audio:
Not specified (Dolby AC3, 2 ch)
Russian Language Unit :
Title Menu

VTS_01 Menu
Video:
PAL 16:9 (720x576) VBR
Auto Pan&Scan
Audio:
Not specified (Dolby AC3, 6 ch)
Russian Language Unit :
Root Menu
Chapter (PTT) Menu

VTS_02 Menu
Video:
NTSC 4:3 (720x480) VBR
Auto Pan&Scan, Auto Letterboxed
Russian Language Unit :
Root Menu
Общее
Полное имя : D:\Новинки 2014\WTF!.Kakogo.cherta.2014.DVD5\VIDEO_TS\VTS_01_1.VOB
Формат : MPEG-PS
Размер файла : 1024 Мбайт
Продолжительность : 19 м.
Режим общего битрейта : Переменный
Общий поток : 7235 Кбит/сек

Видео
Идентификатор : 224 (0xE0)
Формат : MPEG Video
Версия формата : Version 2
Профиль формата : Main@Main
Параметр BVOP формата : Да
Параметр матрицы формата : Выборочная
Параметр GOP формата : Variable
Продолжительность : 19 м.
Вид битрейта : Переменный
Битрейт : 6707 Кбит/сек
Максимальный битрейт : 9000 Кбит/сек
Ширина : 720 пикселей
Высота : 576 пикселей
Соотношение сторон : 16:9
Частота кадров : 25,000 кадров/сек
Стандарт вещания : PAL
Цветовое пространство : YUV
Субдискретизация насыщенности : 4:2:0
Битовая глубина : 8 бит
Тип развёртки : Прогрессивная
Метод сжатия : С потерями
Бит/(Пиксели*Кадры) : 0.647
Временной код первого кадра : 01:00:00:00
Оригинал временного кода : Group of pictures header
Размер потока : 949 Мбайт (93%)

Аудио
Идентификатор : 189 (0xBD)-128 (0x80)
Формат : AC-3
Формат/Информация : Audio Coding 3
Расширение режима : CM (complete main)
Параметр Endianness формата : Big
Режим смешивания : DVD-Video
Продолжительность : 19 м.
Вид битрейта : Постоянный
Битрейт : 384 Кбит/сек
Каналы : 6 каналов
Расположение каналов : Front: L C R, Side: L R, LFE
Частота : 48,0 КГц
Битовая глубина : 16 бит
Метод сжатия : С потерями
Задержка видео : -40 мс.
Размер потока : 54,3 Мбайт (5%)










pb.wtf



Скачать WTF! Какого черта? через торрент http://i63.fastpic.ru/big/2014/0905/6b/66feaab0a3ecdca39ece52d48979726b.jpg Скачать фильм WTF! Какого черта? через торрент бесплантно в хорошем качестве Описание: Реми Гайяр — реальный персонаж Всемирной сети, троллер, провокатор, самый популярный комик инета Европы. Полтора миллиарда ... 10 10 4
Торрент: Зарегистрирован [2014-09-06 08:15] · скачан: 47 раз
Статус: √ проверено
Размер: 4.11 GB
Как cкачать? Как скачать WTF! Какого черта? через торрент | UTorrent

28-11-2019 20:33  

Отключить всю рекламу на сайте

    Дорогой пользователь! Огромная просьба, поблагодарите релизера, оцените раздачу и оставьте свои комментарий, если Вы скачали WTF! Какого черта? через торрент бесплатно! Внесите свою лепту в развитие PiratBit!
    Комментировать посты могут только пользователи прошедшие не сложную регистрацию
    Показать сообщения:    

    WTF! Какого черта? через торрент
    Скачать бесплатно WTF! Какого черта?
    WTF! Какого черта? скачать торрент
    WTF! Какого черта? смотреть онлайн
    Cкачать фильм WTF! Какого черта? бесплатно
    WTF! Какого черта? скачать торрент в хорошем качестве
    WTF! Какого черта? смотреть онлайн бесплатно в хорошем качестве


    Вы не можете начинать темы
    Вы не можете отвечать на сообщения
    Вы не можете редактировать свои сообщения
    Вы не можете удалять свои сообщения
    Вы не можете голосовать в опросах
    Вы не можете прикреплять файлы к сообщениям
    Вы можете скачивать файлы