1 сезон

3 сезон

iTunes

1

iTunes

MVO

iTunes

13

1 сезон

RePack

30

Deluxe

pack

Лицензия

ВАЖНО

ИГРА 18+

pack

RePack

MK11

RePack

jed

RePack

fifa19

RePack

RDR2

RePack

NEED FOR SPEED™ PAYBACK

4 сезон

9 сезон

Бесстыжие 9 сезон

Все сериалы

все сериалы на PB.wtf

RePack

FAR CRY 5

Anonymous, добрый день, мы катастрофически не успеваем собрать деньги на оплату серверов, помогите нам пожалуйста 5,10,15р., для нас важна любая помощь . В качестве благодарности мы отключим Вам всю рекламу на сайте (укажите свой ник в строку Ваше имя)!

×
  
Magnet ссылка

Коробка / Le carton (Шарль Немес) [2004 г., комедия, драма, DVD-5, Дубляж, Лицензия] pb.wtf

Коробка через торрент pb.wtf

Размер: 3.51 GB | Добавлен: 6 лет 10 мес. назад | Торрент скачан:25 раз
Скачать  

06-09-2014 11:18 Коробка Скачать торрент  

Коробка / Le carton
Год выпуска: 2004
Страна: Франция
Жанр: комедия, драма
Продолжительность: 01:25:55
Перевод: Дубляж, Лицензия
Тип релиза: Лицензия
Субтитры: нет

Режиссер: Шарль Немес
Продюссер: Себастьен Фечнер, Николас Ваннье
Сценарий: Клеман Мишель, Себастьен Фечнер

Премьера в мире: 6 октября 2004, ...

зрителям, достигшим 16 лет



В ролях: Венсан Дезанья, Бруно Саломон, Армель Дойч, Фред Тесто, Омар Си, Катрин Бенгиги, Эмили Шеснэ, Сесилия Кара, Санта Озина, Джамель Бурра

Описание: Антуан, немного легкомысленный и рассеянный студент, разбужен голосом своей домовладелицы, которая сообщает, что он должен освободить жилплощадь к 13 часам: собрать свои шмотки и убираться восвояси. Для Антуана это катастрофа. Его квартира — это сумасшедший кавардак.Единственный способ успеть вовремя и не потерять залог за квартиру на три месяца — позвать на помощь друзей. Чтобы выпутаться из всего этого, Антуану придется преодолеть лабиринт невероятных сложностей, которые препятствуют переезду. День задается ужасным, а тут еще вездесущие полицейские, которые постоянно присматривают за друзьями. И весь этот кошмар нужно стойко вынести, чтобы, наконец, выяснить, что зачастую самое неудобное в переезде — это сами друзья!..

Качество: DVD-5
Формат: VOB
Видео кодек: MPEG 2
Аудио кодек: AC3
Видео: MPEG 2, 720x576@1024*576(16:9), 25.000 fps, 8 300 Kbps (0.505 bit/pixel)
Аудио#1: 48 kHz, AC3 Dolby Digital, 3/0 (Front: L R, LFE) ch, ~192.00 kbps avg
Релиз от: Deadmauvlad
скриншот   скриншот   скриншот  
скриншот   скриншот   скриншот   скриншот   скриншот   скриншот  

Общее
Полное имя :Videos\k0r0bka.2004.DVD5.Deadmauvlad\VIDEO_TS\VTS_01_1.VOB
Формат : MPEG-PS
Размер файла : 1024 Мбайт
Продолжительность : 25 м.
Режим общего битрейта : Переменный
Общий поток : 5537 Кбит/сек

Видео
Идентификатор : 224 (0xE0)
Формат : MPEG Video
Версия формата : Version 2
Профиль формата : Main@Main
Параметр BVOP формата : Да
Параметр матрицы формата : По умолчанию
Параметр GOP формата : M=3, N=13
Format_Settings_PictureStructure : Frame
Продолжительность : 25 м.
Вид битрейта : Переменный
Битрейт : 5235 Кбит/сек
Максимальный битрейт : 8300 Кбит/сек
Ширина : 720 пикселей
Высота : 576 пикселей
Соотношение сторон : 16:9
Частота кадров : 25,000 кадров/сек
Стандарт вещания : PAL
Цветовое пространство : YUV
Субдискретизация насыщенности : 4:2:0
Битовая глубина : 8 бит
Тип развёртки : Чересстрочная
Порядок развёртки : Верхнее поле первое
Метод сжатия : С потерями
Бит/(Пиксели*Кадры) : 0.505
Временной код первого кадра : 09:59:59:00
Оригинал временного кода : Group of pictures header
Размер потока : 968 Мбайт (95%)
Основные цвета : BT.601 PAL
Характеристики трансфера : BT.470 System B, BT.470 System G
Коэффициенты матрицы : BT.601

Аудио
Идентификатор : 189 (0xBD)-128 (0x80)
Формат : AC-3
Формат/Информация : Audio Coding 3
Расширение режима : CM (complete main)
Параметр Endianness формата : Big
Режим смешивания : DVD-Video
Продолжительность : 25 м.
Вид битрейта : Постоянный
Битрейт : 192 Кбит/сек
Каналы : 3 канала
Расположение каналов : Front: L R, LFE
Частота : 48,0 КГц
Битовая глубина : 16 бит
Метод сжатия : С потерями
Размер потока : 35,5 Мбайт (3%)

Код:

Title: k0r0bka.2004.DVD5.Deadmauvlad
Size: 3.51 Gb ( 3 677 230,00 KBytes ) - DVD-5
Enabled regions: 1, 2, 3, 4, 5, 6

VTS_01 :
  Play Length: 01:25:55
  Video: PAL 16:9 (720x576) VBR, Auto Letterboxed
  Audio:
      Russian (Dolby AC3, 3 ch)

VTS_02 :
  Play Length: 00:00:00+00:00:18
  Video: PAL 4:3 (720x576) VBR
  Audio:
      Russian (Dolby AC3, 6 ch)

* Menus Information *

VIDEO_TS Menu
Video:
      PAL 4:3 (720x576) VBR
English Language Unit :
      Title Menu

VTS_01 Menu
Video:
      PAL 4:3 (720x576) VBR
Audio:
      Not specified (Dolby AC3, 3 ch)
English Language Unit :
      Root Menu

VTS_02 Menu
Video:
      PAL 4:3 (720x576) VBR
English Language Unit :
      Root Menu

pb.wtf



Скачать Коробка через торрент https://pic1.kartinco.top/images/61/7nw6f.jpg Скачать фильм Коробка через торрент бесплантно в хорошем качестве Описание: Антуан, немного легкомысленный и рассеянный студент, разбужен голосом своей домовладелицы, которая сообщает, что он должен ... 10 10 3
Info! Золотая раздача, скачанное не засчитывается.
Торрент: Зарегистрирован [2014-09-06 11:18] · скачан: 25 раз
Статус: √ проверено
Размер: 3.51 GB
Как cкачать? Как скачать Коробка через торрент | UTorrent

% Раздел Тема Автор DL S | L
Фильмы 2001-2005 [ 748 MB ] Коробка / Le carton [2004 DVDRip ] Se7ven95 Скачать
1 | 0
Фильмы 2001-2005 [ 1.36 GB ] Коробка / Le carton [2004 DVDRip ] Se7ven95 Скачать
1 | 0
Фильмы 2001-2005 [ 1.37 GB ] Коробка / Le carton [2004 DVDRip лицензия] metanoia Скачать
1 | 0


Последний раз редактировалось: Se7ven95 (2014-09-06 16:29), всего редактировалось 1 раз

28-11-2019 20:33  

Отключить всю рекламу на сайте

    Дорогой пользователь! Огромная просьба, поблагодарите релизера, оцените раздачу и оставьте свои комментарий, если Вы скачали Коробка через торрент бесплатно! Внесите свою лепту в развитие PiratBit!
    Комментировать посты могут только пользователи прошедшие не сложную регистрацию
    Показать сообщения:    

    Коробка через торрент
    Скачать бесплатно Коробка
    Коробка скачать торрент
    Коробка смотреть онлайн
    Cкачать фильм Коробка бесплатно
    Коробка скачать торрент в хорошем качестве
    Коробка смотреть онлайн бесплатно в хорошем качестве


    Вы не можете начинать темы
    Вы не можете отвечать на сообщения
    Вы не можете редактировать свои сообщения
    Вы не можете удалять свои сообщения
    Вы не можете голосовать в опросах
    Вы не можете прикреплять файлы к сообщениям
    Вы можете скачивать файлы