Всегда рабочее зеркало просто перед .vidak.icu напиши любое слово или цифру, Пример http://rtz.vidak.icu

>

7.4

iTunes

7.4

2 сезон

6.6

iTunes

1

7.4

2 сезон

7.2

iTunes

6.0

MVO

13

6.1

iTunes

8.3

Пиратка

30

ULTIMATE

pack

9.9

Лицензия

ВАЖНО

ИГРА 18+

pack

7.3

RePack

MK11

7.7

RePack

jed

7.8

RePack

fifa19

8.5

RePack

RDR2

RePack

NEED FOR SPEED™ PAYBACK

1 сезон

9 сезон

Бесстыжие 9 сезон

Все сериалы

все сериалы на PB.wtf

RePack

FAR CRY 5

Anonymous, доброй ночи, мы катастрофически не успеваем собрать деньги на оплату серверов, помогите нам пожалуйста 5,10,15р., для нас важна любая помощь . В качестве благодарности мы отключим Вам всю рекламу на сайте (укажите свой ник в строку Ваше имя)!

×
  
Magnet ссылка

Виноваты звезды / The Fault in Our Stars (Джош Бун / Josh Boone) [2014, Драма, мелодрама, BDRip-AVC] AVO pb.wtf

Виноваты звезды через торрент pb.wtf

Размер: 1.46 GB | Добавлен: 7 лет 4 мес. назад | Торрент скачан:468 раз
Смотреть онлайн Виноваты звезды | Скачать    Ребята, помогите собрать деньги на оплату серверов!!!

06-09-2014 17:02 Виноваты звезды Скачать торрент  

Виноваты звезды / The Fault in Our Stars
Год выпуска: 2014
Страна: США / Temple Hill Entertainment
Жанр: Драма, мелодрама
Продолжительность: 02:12:54
Перевод: Авторский [А.Матвеев]
Субтитры: Aнглийские (Full + SDH)

Режиссер: Джош Бун / Josh Boone

В ролях: Шейлин Вудли, Энсел Элгорт, Нат Вулф, Лора Дерн, Сэм Трэммелл, Уиллем Дефо, Лотте Вербеек, Ана Дела Крус, Рэнди Ковиц, Тони Саладна

Описание: Хэйзел больна раком. Несмотря на то, что болезнь временно отступила, девушка не чувствует ни капли радости. Она ходит в группу поддержки, где однажды знакомится с Августом Уотерсом и моментально влюбляется в него. Август и Хэйзел отправляются в полное страсти и жизни путешествие, которое лишний раз покажет им, что весь смысл жизни можно найти в любом ее отрезке.



Качество: BDRip-AVC
Формат: MKV
Видео кодек: H.264
Аудио кодек: AC3
Видео: 960x518 (1,85:1), 23,976 fps, 1384 kbps, 0.116 bit/pixel
Аудио: 48 kHz, AC3 Dolby Digital, 2/0 (L,R) ch, 192.00 kbps

Релиз группы:
Автор рипа: potroks

Общее
Уникальный идентификатор : 210718653220123553124038304512940164532 (0x9E86EFB86B3AD177982C4F685E27C5B4)
Полное имя : Vinovaty.Zviozdy.2014.Extended.RUS.BDRip.x264.-HELLYWOOD.mkv
Формат : Matroska
Версия формата : Version 4 / Version 2
Размер файла : 1,46 Гбайт
Продолжительность : 2 ч. 12 м.
Общий поток : 1576 Кбит/сек
Название фильма : The Fault in Our Stars (2014) - HELLYWOOD
Дата кодирования : UTC 2014-09-06 15:54:36
Программа кодирования : mkvmerge v5.9.0 ('On The Loose') built on Dec 15 2012 16:39:58
Библиотека кодирования : libebml v1.3.0 + libmatroska v1.4.0

Видео
Идентификатор : 1
Формат : AVC
Формат/Информация : Advanced Video Codec
Профиль формата : High@L4.1
Параметр CABAC формата : Да
Параметр ReFrames формата : 12 кадров
Идентификатор кодека : V_MPEG4/ISO/AVC
Продолжительность : 2 ч. 12 м.
Битрейт : 1384 Кбит/сек
Ширина : 960 пикселей
Высота : 518 пикселей
Соотношение сторон : 1,85:1
Режим частоты кадров : Постоянный
Частота кадров : 23,976 кадра/сек
Цветовое пространство : YUV
Субдискретизация насыщенности : 4:2:0
Битовая глубина : 8 бит
Тип развёртки : Прогрессивная
Бит/(Пиксели*Кадры) : 0.116
Размер потока : 1,26 Гбайт (86%)
Заголовок : potroks
Библиотека кодирования : x264 core 130 r2273 b3065e6
Настройки программы : cabac=1 / ref=12 / deblock=1:-2:-2 / analyse=0x3:0x133 / me=umh / subme=11 / psy=1 / psy_rd=1.03:0.00 / mixed_ref=1 / me_range=48 / chroma_me=1 / trellis=2 / 8x8dct=1 / cqm=0 / deadzone=21,11 / fast_pskip=0 / chroma_qp_offset=-2 / threads=9 / lookahead_threads=2 / sliced_threads=0 / nr=0 / decimate=0 / interlaced=0 / bluray_compat=0 / constrained_intra=0 / bframes=13 / b_pyramid=2 / b_adapt=2 / b_bias=0 / direct=3 / weightb=1 / open_gop=0 / weightp=2 / keyint=250 / keyint_min=23 / scenecut=40 / intra_refresh=0 / rc_lookahead=140 / rc=2pass / mbtree=1 / bitrate=1384 / ratetol=1.0 / qcomp=0.70 / qpmin=0 / qpmax=69 / qpstep=4 / cplxblur=20.0 / qblur=0.5 / vbv_maxrate=50000 / vbv_bufsize=62500 / nal_hrd=none / ip_ratio=1.35 / aq=2:0.80
Язык : English
Default : Да
Forced : Нет

Аудио
Идентификатор : 2
Формат : AC-3
Формат/Информация : Audio Coding 3
Расширение режима : CM (complete main)
Параметр Endianness формата : Big
Идентификатор кодека : A_AC3
Продолжительность : 2 ч. 12 м.
Вид битрейта : Постоянный
Битрейт : 192 Кбит/сек
Каналы : 2 канала
Расположение каналов : Front: L R
Частота : 48,0 КГц
Битовая глубина : 16 бит
Метод сжатия : С потерями
Размер потока : 183 Мбайт (12%)
Заголовок : AVO | DD 2.0 @ 192 kbps - А.Матвеев
Язык : Russian
Default : Да
Forced : Да

Текст #1
Идентификатор : 3
Формат : UTF-8
Идентификатор кодека : S_TEXT/UTF8
Идентификатор кодека/Информация : UTF-8 Plain Text
Язык : English
Default : Нет
Forced : Нет

Текст #2
Идентификатор : 4
Формат : UTF-8
Идентификатор кодека : S_TEXT/UTF8
Идентификатор кодека/Информация : UTF-8 Plain Text
Заголовок : SDH
Язык : English
Default : Нет
Forced : Нет

Меню
00:00:00.000 : en:(01)00:00:00:000
00:02:34.529 : en:(02)00:02:34:529
00:06:25.593 : en:(03)00:06:25:593
00:13:01.906 : en:(04)00:13:01:906
00:15:07.615 : en:(05)00:15:07:615
00:18:12.591 : en:(06)00:18:12:591
00:21:05.681 : en:(07)00:21:05:681
00:24:59.789 : en:(08)00:24:59:789
00:28:35.380 : en:(09)00:28:35:380
00:31:30.805 : en:(10)00:31:30:805
00:38:12.873 : en:(11)00:38:12:873
00:41:51.217 : en:(12)00:41:51:217
00:49:19.831 : en:(13)00:49:19:831
00:56:41.606 : en:(14)00:56:41:606
01:02:27.326 : en:(15)01:02:27:326
01:05:40.978 : en:(16)01:05:40:978
01:08:17.426 : en:(17)01:08:17:426
01:14:57.743 : en:(18)01:14:57:743
01:20:58.478 : en:(19)01:20:58:478
01:25:30.333 : en:(20)01:25:30:333
01:29:04.338 : en:(21)01:29:04:338
01:34:50.476 : en:(22)01:34:50:476
01:43:59.024 : en:(23)01:43:59:024
01:46:27.088 : en:(24)01:46:27:088
01:52:18.481 : en:(25)01:52:18:481
01:57:25.455 : en:(26)01:57:25:455
02:01:09.303 : en:(27)02:01:09:303
02:06:16.402 : en:(28)02:06:16:402
02:12:53.715 : en:(29)02:12:53:715

pb.wtf



Скачать Виноваты звезды через торрент https://pic1.kartinco.top/images/71/vas4k.jpg Скачать, смотреть онлайн Виноваты звезды бесплантно в хорошем качестве Описание: Хэйзел больна раком. Несмотря на то, что болезнь временно отступила, девушка не чувствует ни капли радости. Она ходит в группу ... 10 10 10
Торрент: Зарегистрирован [2014-09-06 17:02] · скачан: 468 раз
Статус: √ проверено
Размер: 1.46 GB
Как cкачать? Как скачать Виноваты звезды через торрент | UTorrent

% Раздел Тема Автор DL S | L
Фильмы [HD 720p, 1080p] (Хороший звук DUB, MVO) [ 6.62 GB ] Виноваты звезды / The Fault in Our Stars [Extended cut] [2014 BDRip 720p] [] + AVO [А. Матвеев] + Original + Subs от R.G. PiratFilms Messa-fan Скачать
1 | 0

28-11-2019 20:33  

Отключить всю рекламу на сайте

06-09-2014 19:38 Виноваты звезды Скачать торрент  

Скрины побольше залей что ли.. А то мой микроскоп их не видит sarcasticpb.wtf



06-09-2014 22:29 Виноваты звезды Скачать торрент  

Жизнь такая не справедливая штука, очень красивая история, отличные актёры,их игра передаёт настроение, от чего становится жутко грустно, одиноко, и просто эмоционально разбитым, если бы у них было ещё чуть чуть времени, или болезнь отступила, но у Бога свои планы на всех нас, просто это нужно принять , как есть и продолжать жить и умирать...pb.wtf



06-09-2014 22:31 Виноваты звезды Скачать торрент  

Я к тому, что если кто-то думает смотреть или нет, то да, разумеется смотреть, но этот фильм для тех, кто смотрит кино не в качестве посмотреть, чтобы время убить, или просто чем нибудь глаза убить, этот фильм для тех, у кого есть душа!!
Я очень синтементален, я уж извиняюсь, просто тронул за душу этот фильм)pb.wtf



    Дорогой пользователь! Огромная просьба, поблагодарите релизера, оцените раздачу и оставьте свои комментарий, если Вы скачали Виноваты звезды через торрент бесплатно!
    Комментировать посты могут только пользователи прошедшие не сложную регистрацию
    Показать сообщения:    

    Виноваты звезды через торрент
    Скачать бесплатно Виноваты звезды
    Виноваты звезды скачать торрент
    Виноваты звезды смотреть онлайн
    Cкачать фильм Виноваты звезды бесплатно
    Виноваты звезды скачать торрент в хорошем качестве
    Виноваты звезды смотреть онлайн бесплатно в хорошем качестве


    Вы не можете начинать темы
    Вы не можете отвечать на сообщения
    Вы не можете редактировать свои сообщения
    Вы не можете удалять свои сообщения
    Вы не можете голосовать в опросах
    Вы не можете прикреплять файлы к сообщениям
    Вы можете скачивать файлы