2 сезон

iTunes

MVO

1

2 сезон

iTunes

iTunes

1 сезон

RePack

30

Новинка

ВАЖНО

ИГРА 18+

pack

RePack

MK11
pack

Легкие деньги

RePack

jed

RePack

fifa19

RePack

RDR2

RePack

NEED FOR SPEED™ PAYBACK

4 сезон

9 сезон

Бесстыжие 9 сезон

Все сериалы

все сериалы на PB.wtf

RePack

FAR CRY 5

Anonymous, доброй ночи, мы не успеваем собрать деньги на оплату серверов за декабрь и январь, помогите нам пожалуйста в это трудное время. В качестве благодарности мы отключим Вам всю рекламу на сайте (укажите свой ник в строку Ваше имя)!

×
  
Magnet ссылка

Одна встреча / Une rencontre (Лиза Азуэлос) [2014 г., драма, мелодрама, HDRip, Дубляж, Лицензия] pb.wtf

Одна встреча через торрент pb.wtf

Размер: 609 MB | Добавлен: 6 лет 4 мес. назад | Торрент скачан:14 раз
Скачать  

06-09-2014 17:24 Одна встреча Скачать торрент  

Одна встреча / Une rencontre

Год выпуска: 2014
Страна: Франция
Жанр: драма, мелодрама
Продолжительность: 01:21:30
Перевод: Дубляж, Лицензия

Режиссер: Лиза Азуэлос
Продюссер: Лиза Азуэлос, Флориан Женете-Морель, Ромейн Ле Гранд
Сценарий: Лиза Азуэлос
Премьера в мире: 12 января 2014

IMDB 6.10 (358)


В ролях: Софи Марсо, Франсуа Клюзе, Лиза Азуэлос, Александр Астье, Артур Бензакен, Джонатан Коэн, Нильс Шнайдер, Стефани Мурат, Оливия Коте, Сайрус Шахиди, Анастасия Лапина, Алексей Войтюк, Инга Сметанина, Алексей Черных, Александр Воронов

Описание: Случайная встреча семьянина с красивой женщиной порождает взаимное притяжение между ними...



Качество: HDRip
Формат: MP4
Видео кодек: AVC
Аудио кодек: AAC LC
Видео: AVC, 800x336 (2.35:1), 24.000 fps, 847 Kbps (0.131 bit/pixel)
Аудио: AAC LC, 48.0 KHz, 2 ch, 192 Kbps, VBR
x264 [info]: profile High, level 4.1
x264 [info]: frame I:825 Avg QP:13.16 size: 38201
x264 [info]: frame P:26305 Avg QP:16.35 size: 9948
x264 [info]: frame B:90252 Avg QP:19.51 size: 2491
x264 [info]: consecutive B-frames: 1.5% 1.8% 6.0% 41.6% 14.9% 23.2% 6.1% 2.2% 1.5% 0.6% 0.1% 0.2% 0.2%
x264 [info]: ref P L0: 51.0% 10.3% 16.2% 6.4% 4.9% 3.7% 3.2% 2.0% 2.0% 0.3% 0.0%
x264 [info]: ref B L0: 78.0% 10.2% 5.0% 2.4% 1.8% 1.4% 0.8% 0.3%
x264 [info]: ref B L1: 93.6% 6.4%
x264 [info]: kb/s:847.31
Format : MPEG-4
Format profile : Base Media
Codec ID : isom
File size : 609 MiB
Duration : 1h 21mn
Overall bit rate mode : Variable
Overall bit rate : 1 045 Kbps
Writing application : Lavf53.19.0

Video
ID : 1
Format : AVC
Format/Info : Advanced Video Codec
Format profile : High@L4.1
Format settings, CABAC : Yes
Format settings, ReFrames : 9 frames
Codec ID : avc1
Codec ID/Info : Advanced Video Coding
Duration : 1h 21mn
Source duration : 2mn 46s
Bit rate : 847 Kbps
Width : 800 pixels
Height : 336 pixels
Display aspect ratio : 2.40:1
Frame rate mode : Constant
Frame rate : 24.000 fps
Color space : YUV
Chroma subsampling : 4:2:0
Bit depth : 8 bits
Scan type : Progressive
Bits/(Pixel*Frame) : 0.131
Stream size : 494 MiB (81%)
Source stream size : 494 MiB (81%)
Writing library : x264 core 130 r2273 b3065e6
Encoding settings : cabac=1 / ref=9 / deblock=1:-3:-2 / analyse=0x3:0x133 / me=umh /
subme=9 / psy=1 / psy_rd=1.00:0.00 / mixed_ref=1 / me_range=24 / chroma_me=1 / trellis=2 /
8x8dct=1 / cqm=0 / deadzone=21,11 / fast_pskip=1 / chroma_qp_offset=-2 / threads=3 /
lookahead_threads=1 / sliced_threads=0 / nr=0 / decimate=1 / interlaced=0 / bluray_compat=0 /
constrained_intra=0 / bframes=12 / b_pyramid=2 / b_adapt=2 / b_bias=0 / direct=1 / weightb=1 /
open_gop=0 / weightp=2 / keyint=250 / keyint_min=23 / scenecut=40 / intra_refresh=0 /
rc_lookahead=60 / rc=crf / mbtree=1 / crf=17.0 / qcomp=0.60 / qpmin=0 / qpmax=69 / qpstep=4 /
ip_ratio=1.40 / aq=1:1.00
mdhd_Duration : 4890921

Audio
ID : 2
Format : AAC
Format/Info : Advanced Audio Codec
Format profile : LC
Codec ID : 40
Duration : 1h 21mn
Bit rate mode : Variable
Bit rate : 192 Kbps
Channel(s) : 2 channels
Channel positions : Front: L R
Sampling rate : 48.0 KHz
Compression mode : Lossy
Delay relative to video : 83ms
Stream size : 112 MiB (18%)
pb.wtf



Скачать Одна встреча через торрент http://i65.fastpic.ru/big/2014/0906/b9/18e10dba1ad74e6c185a486c9b04a8b9.png Скачать фильм Одна встреча через торрент бесплантно в хорошем качестве Описание: Случайная встреча семьянина с красивой женщиной порождает взаимное притяжение между ... 10 10 4
Торрент: Зарегистрирован [2014-09-06 17:24] · скачан: 14 раз
Статус: √ проверено
Размер: 609 MB
Как cкачать? Как скачать Одна встреча через торрент | UTorrent

% Раздел Тема Автор DL S | L
Фильмы (Blu-ray, BD-Remux, HDDVD) [ 16.46 GB ] Одна встреча / Une rencontre [2014 BDRemux / DUB ] Ворон Скачать
1 | 0
Фильмы 2014 [DVDrip, WEB-DLRip, HDrip] [ 1.35 GB ] Одна встреча / Une rencontre [2014 HDRip] DUB Ворон Скачать
1 | 0
Фильмы 2014 [DVDrip, WEB-DLRip, HDrip] [ 745 MB ] Одна встреча / Une rencontre [2014 DVDRip] Dub / Mr. Freeman Скачать
1 | 0
Фильмы (DVD фильмы) [ 3.82 GB ] Одна встреча / Une rencontre [2014 DVD5] R5 voovaz Скачать
1 | 0
Фильмы 2014 [DVDrip, WEB-DLRip, HDrip] [ 1.37 GB ] Одна встреча / Une rencontre [2014 DVDRip] DUB GEKADOL Скачать
1 | 0

28-11-2019 20:33  

Отключить всю рекламу на сайте

    Дорогой пользователь! Огромная просьба, поблагодарите релизера, оцените раздачу и оставьте свои комментарий, если Вы скачали Одна встреча через торрент бесплатно! Внесите свою лепту в развитие PiratBit!
    Комментировать посты могут только пользователи прошедшие не сложную регистрацию
    Показать сообщения:    

    Одна встреча через торрент
    Скачать бесплатно Одна встреча
    Одна встреча скачать торрент
    Одна встреча смотреть онлайн
    Cкачать фильм Одна встреча бесплатно
    Одна встреча скачать торрент в хорошем качестве
    Одна встреча смотреть онлайн бесплатно в хорошем качестве


    Вы не можете начинать темы
    Вы не можете отвечать на сообщения
    Вы не можете редактировать свои сообщения
    Вы не можете удалять свои сообщения
    Вы не можете голосовать в опросах
    Вы не можете прикреплять файлы к сообщениям
    Вы можете скачивать файлы