Всегда рабочее зеркало просто перед .vidak.icu напиши любое слово или цифру, Пример http://05d.vidak.icu

>

7.4

iTunes

7.4

2 сезон

6.6

iTunes

1

7.4

2 сезон

7.2

iTunes

6.0

MVO

13

6.1

iTunes

8.3

Пиратка

30

ULTIMATE

pack

9.9

Лицензия

ВАЖНО

ИГРА 18+

pack

7.3

RePack

MK11

7.7

RePack

jed

7.8

RePack

fifa19

8.5

RePack

RDR2

RePack

NEED FOR SPEED™ PAYBACK

1 сезон

9 сезон

Бесстыжие 9 сезон

Все сериалы

все сериалы на PB.wtf

RePack

FAR CRY 5

Anonymous, добрый день, мы катастрофически не успеваем собрать деньги на оплату серверов, помогите нам пожалуйста 5,10,15р., для нас важна любая помощь . В качестве благодарности мы отключим Вам всю рекламу на сайте (укажите свой ник в строку Ваше имя)!

×
  
Magnet ссылка

Уличный боец: Кулак убийцы / Street Fighter: Assassin's Fist (Джои Анса / Joey Ansah) [2014,боевик, триллер, BDRip, Авторский (одноголосый)(А.Дольский) pb.wtf

Уличный боец: Кулак убийцы через торрент pb.wtf

Размер: 2.18 GB | Добавлен: 7 лет 4 мес. назад | Торрент скачан:258 раз
Смотреть онлайн Уличный боец: Кулак убийцы | Скачать    Ребята, помогите собрать деньги на оплату серверов!!!

06-09-2014 21:37 Уличный боец: Кулак убийцы Скачать торрент  

Уличный боец: Кулак убийцы / Street Fighter: Assassin's Fist
«If a man alters his path can he change his destiny...or only delay the inevitable?»

Год выпуска: 2014
Страна: Великобритания
Жанр:боевик, триллер,
Продолжительность:02:26:20
Перевод:Авторский (одноголосый)(А.Дольский)
Режиссер:Джои Анса / Joey Ansah

  • В ролях:
    Семен Цолов (Ken Masters (12YO)), Акира Койеяма (Gôken (2014)), Крис Ховард (Ken Masters (2014)), Майк Мо (Ryu (2014)), Того Игава (Gôma (2014)), Марк Киллин (Mr. Masters (2014)), Харукико Яманоути (Senzô (2014)), Шоген (Young Gôken (2014)), Гаку Спэйс (Gôki (2014)), Джои Анса (Akuma (2014)), Hyunri (Sayaka (2014))


  • Описание:
    Сериал рассказывает о периоде становления бойцами Рю и Кена, когда они жили традиционной жизнью воинов в Японии. Парни и не подозревали, что являются последними людьми, познавшими древний боевой стиль, известный как «Ансацукен» (Кулак убийцы)...

  • Мировая премьера:23 мая 2014

    Качество: BDRip
    Формат:AVI
    Видео кодек: XviD
    Аудио кодек:AC3
    Видео: XviD, 720x304 (2.35:1), 1675 kbps, 25 fps, 0,306 bpp
    Аудио: AC3 / 5.1 / 48 kHz / 448 kbps / 16 bit


    Код:

    General
    Complete name                            : D:\Торенты\Street.Fighter.Assassins.Fist.2014.A.BDRip.avi
    Format                                   : AVI
    Format/Info                              : Audio Video Interleave
    Format profile                           : OpenDML
    File size                                : 2.18 GiB
    Duration                                 : 2h 26mn
    Overall bit rate                         : 2 136 Kbps
    Writing application                      : VirtualDubMod 1.5.10.2 (build 2540/release)
    Writing library                          : VirtualDubMod build 2540/release
    Copyright                                : ExKinoRay

    Video
    ID                                       : 0
    Format                                   : MPEG-4 Visual
    Format profile                           : Advanced Simple@L5
    Format settings, BVOP                    : 1
    Format settings, QPel                    : No
    Format settings, GMC                     : No warppoints
    Format settings, Matrix                  : Custom
    Codec ID                                 : XVID
    Codec ID/Hint                            : XviD
    Duration                                 : 2h 26mn
    Bit rate                                 : 1 676 Kbps
    Width                                    : 720 pixels
    Height                                   : 304 pixels
    Display aspect ratio                     : 2.35:1
    Frame rate                               : 25.000 fps
    Color space                              : YUV
    Chroma subsampling                       : 4:2:0
    Bit depth                                : 8 bits
    Scan type                                : Progressive
    Compression mode                         : Lossy
    Bits/(Pixel*Frame)                       : 0.306
    Stream size                              : 1.71 GiB (78%)
    Writing library                          : XviD 1.2.1 (UTC 2008-12-04)

    Audio
    ID                                       : 1
    Format                                   : AC-3
    Format/Info                              : Audio Coding 3
    Mode extension                           : CM (complete main)
    Codec ID                                 : 2000
    Duration                                 : 2h 26mn
    Bit rate mode                            : Constant
    Bit rate                                 : 448 Kbps
    Channel(s)                               : 6 channels
    Channel positions                        : Front: L C R, Side: L R, LFE
    Sampling rate                            : 48.0 KHz
    Bit depth                                : 16 bits
    Compression mode                         : Lossy
    Stream size                              : 469 MiB (21%)
    Alignment                                : Split accross interleaves
    Interleave, duration                     : 40 ms (1.00 video frame)
    Interleave, preload duration             : 500 ms

    Скриншоты:

    Срочно! Нужна помощь!
    Поблагодарить релизера!
    pb.wtf



  • Скачать Уличный боец: Кулак убийцы через торрент https://pic1.kartinco.top/images/61/stazu.jpg Скачать, смотреть онлайн Уличный боец: Кулак убийцы бесплантно в хорошем качестве Описание:Сериал рассказывает о периоде становления бойцами Рю и Кена, когда они жили традиционной жизнью воинов в Японии. Парни и не ... 9.9 10 16
    Торрент: Зарегистрирован [2014-09-06 21:37] · скачан: 258 раз
    Статус: √ проверено
    Размер: 2.18 GB
    Как cкачать? Как скачать Уличный боец: Кулак убийцы через торрент | UTorrent

    28-11-2019 20:33  

    Отключить всю рекламу на сайте

      Дорогой пользователь! Огромная просьба, поблагодарите релизера, оцените раздачу и оставьте свои комментарий, если Вы скачали Уличный боец: Кулак убийцы через торрент бесплатно!
      Комментировать посты могут только пользователи прошедшие не сложную регистрацию
      Показать сообщения:    

      Уличный боец: Кулак убийцы через торрент
      Скачать бесплатно Уличный боец: Кулак убийцы
      Уличный боец: Кулак убийцы скачать торрент
      Уличный боец: Кулак убийцы смотреть онлайн
      Cкачать фильм Уличный боец: Кулак убийцы бесплатно
      Уличный боец: Кулак убийцы скачать торрент в хорошем качестве
      Уличный боец: Кулак убийцы смотреть онлайн бесплатно в хорошем качестве


      Вы не можете начинать темы
      Вы не можете отвечать на сообщения
      Вы не можете редактировать свои сообщения
      Вы не можете удалять свои сообщения
      Вы не можете голосовать в опросах
      Вы не можете прикреплять файлы к сообщениям
      Вы можете скачивать файлы