1 сезон

3 сезон

iTunes

1

iTunes

MVO

iTunes

13

1 сезон

RePack

30

Deluxe

pack

Лицензия

ВАЖНО

ИГРА 18+

pack

RePack

MK11

RePack

jed

RePack

fifa19

RePack

RDR2

RePack

NEED FOR SPEED™ PAYBACK

4 сезон

9 сезон

Бесстыжие 9 сезон

Все сериалы

все сериалы на PB.wtf

RePack

FAR CRY 5

Anonymous, доброй ночи, мы катастрофически не успеваем собрать деньги на оплату серверов, помогите нам пожалуйста 5,10,15р., для нас важна любая помощь . В качестве благодарности мы отключим Вам всю рекламу на сайте (укажите свой ник в строку Ваше имя)!

×
  
Magnet ссылка

Лига мечты / United Passions (Фредерик Обюртен / Frédéric Auburtin) [2014, драма, история, спорт, DVD5] R5 pb.wtf

Лига мечты через торрент pb.wtf

Размер: 4.11 GB | Добавлен: 6 лет 10 мес. назад | Торрент скачан:38 раз
Скачать  

07-09-2014 04:32 Лига мечты Скачать торрент  


Лига мечты / United Passions
«Они объединили мир»
Страна: Франция
Студия: Leuviah Films, Thelma Films
Жанр: драма, история, спорт
Год выпуска: 2014
Мировая премьера: 18 мая 2014
Российская премьера: 3 июля 2014
Дата выхода DVD: 2 сентября 2014
Продолжительность: 01:45:16
Перевод: Профессиональный (дублированный) [Лицензия]
Cубтитры: нет
Оригинальная аудиодорожка: нет
Режиссер: Фредерик Обюртен / Frédéric Auburtin
В ролях: Тим Рот, Жерар Депардье, Сэм Нил, Томас Кречман, Фишер Стивенс, Джемайма Уэст, Джейсон Бэрри, Мартин Джарвис, Энтони Хиггинс, Ричард Диллэйн
Описание: В начале 20-го века несколько энтузиастов из разных европейских стран решили совместно реализовать амбициозную мечту — создать футбольную организацию, которая объединила бы весь мир! Они назвали ее Международная федерация по футболу или коротко — FIFA…
В основе фильма лежит интригующая и несколько скандальная история, основанная на реальных событиях, о возникновении Кубка мира по футболу и трех одержимых людях, способствовавших его проведению.
Жюль Риме, Авеланж Жоао и ныне действующий президент FIFA Йозеф «Зепп» Блаттер — три столь разных человека жили в разное время в разных странах. Они наживали врагов, шли на компромиссы, становились жертвами предательства — но они сделали все, чтобы Чемпионат мира по футболу стал реальностью.
Эта более чем вековая история прославляет игру, которая, несмотря ни на что, стала не только Всемирным Спортом, но и олицетворением Надежды, Силы духа и Единства.

Бонусы: нет

Релиз группы:
Качество: DVD5 R5
Формат: DVD-Video
Видео кодек: MPEG2
Аудио кодек: AC3
Видео: PAL 16:9 (720x576(0.473)) MPEG Video, 25,000 кадр/сек, 4901 Кбит/сек
Аудио: Russian (Dolby AC3, 6 ch) 448 Кбит/сек, 48,0 КГц



Title: Liga.mechty.2014.DVD5
Size: 4.11 Gb ( 4 312 390,00 KBytes ) - DVD-5
Enabled regions: 1, 2, 3, 4, 5, 6, 7, 8

VTS_01 :
Play Length: 00:00:19
Video: PAL 16:9 (720x576) VBR, Auto Pan&Scan, Auto Letterboxed
Audio:
Not specified (Dolby AC3, 2 ch)

VTS_02 :
Play Length: 01:45:16
Video: PAL 16:9 (720x576) VBR, Auto Letterboxed
Audio:
Not specified (Dolby AC3, 6 ch)

* Menus Information *

VIDEO_TS Menu
Video:
PAL 16:9 (720x576) VBR
Auto Pan&Scan, Auto Letterboxed
English Language Unit :
Title Menu

VTS_01 Menu
Video:
PAL 16:9 (720x576) VBR
Auto Pan&Scan, Auto Letterboxed
Audio:
Not specified (Dolby AC3, 6 ch)
English Language Unit :
Root Menu

VTS_02 Menu
Video:
PAL 4:3 (720x576) VBR
English Language Unit :
Root Menu
Общее
Полное имя : D:\Новинки 2014\Liga.mechty.2014.DVD5\VIDEO_TS\VTS_02_2.VOB
Формат : MPEG-PS
Размер файла : 1024 Мбайт
Продолжительность : 26 м.
Режим общего битрейта : Переменный
Общий поток : 5458 Кбит/сек

Видео
Идентификатор : 224 (0xE0)
Формат : MPEG Video
Версия формата : Version 2
Профиль формата : Main@Main
Параметр BVOP формата : Да
Параметр матрицы формата : Выборочная
Параметр GOP формата : M=3, N=12
Продолжительность : 26 м.
Вид битрейта : Переменный
Битрейт : 4901 Кбит/сек
Максимальный битрейт : 9000 Кбит/сек
Ширина : 720 пикселей
Высота : 576 пикселей
Соотношение сторон : 16:9
Частота кадров : 25,000 кадров/сек
Стандарт вещания : PAL
Цветовое пространство : YUV
Субдискретизация насыщенности : 4:2:0
Битовая глубина : 8 бит
Тип развёртки : Чересстрочная
Порядок развёртки : Верхнее поле первое
Метод сжатия : С потерями
Бит/(Пиксели*Кадры) : 0.473
Временной код первого кадра : 00:26:15:09
Оригинал временного кода : Group of pictures header
Размер потока : 920 Мбайт (90%)
Основные цвета : BT.601 PAL
Характеристики трансфера : BT.470 System B, BT.470 System G
Коэффициенты матрицы : BT.601

Аудио
Идентификатор : 189 (0xBD)-128 (0x80)
Формат : AC-3
Формат/Информация : Audio Coding 3
Расширение режима : CM (complete main)
Параметр Endianness формата : Big
Режим смешивания : DVD-Video
Продолжительность : 26 м.
Вид битрейта : Постоянный
Битрейт : 448 Кбит/сек
Каналы : 6 каналов
Расположение каналов : Front: L C R, Side: L R, LFE
Частота : 48,0 КГц
Битовая глубина : 16 бит
Метод сжатия : С потерями
Задержка видео : -384 мс.
Размер потока : 84,1 Мбайт (8%)










pb.wtf



Скачать Лига мечты через торрент http://i67.fastpic.ru/big/2014/0906/81/ef928bacd747c4376bc8a802a9e0f681.png Скачать фильм Лига мечты через торрент бесплантно в хорошем качестве Описание: В начале 20-го века несколько энтузиастов из разных европейских стран решили совместно реализовать амбициозную мечту — создать ... 10 10 5
Info! Золотая раздача, скачанное не засчитывается.
Торрент: Зарегистрирован [2014-09-07 04:32] · скачан: 38 раз
Статус: √ проверено
Размер: 4.11 GB
Как cкачать? Как скачать Лига мечты через торрент | UTorrent

28-11-2019 20:33  

Отключить всю рекламу на сайте

    Дорогой пользователь! Огромная просьба, поблагодарите релизера, оцените раздачу и оставьте свои комментарий, если Вы скачали Лига мечты через торрент бесплатно! Внесите свою лепту в развитие PiratBit!
    Комментировать посты могут только пользователи прошедшие не сложную регистрацию
    Показать сообщения:    

    Лига мечты через торрент
    Скачать бесплатно Лига мечты
    Лига мечты скачать торрент
    Лига мечты смотреть онлайн
    Cкачать фильм Лига мечты бесплатно
    Лига мечты скачать торрент в хорошем качестве
    Лига мечты смотреть онлайн бесплатно в хорошем качестве


    Вы не можете начинать темы
    Вы не можете отвечать на сообщения
    Вы не можете редактировать свои сообщения
    Вы не можете удалять свои сообщения
    Вы не можете голосовать в опросах
    Вы не можете прикреплять файлы к сообщениям
    Вы можете скачивать файлы