новый адрес
Ссылка на приватное зеркало всего за 1$. Внимание количество ограничено!!!

iTunes

1+1

iTunes

мы

WEB-DL

1

iTunes

Чернобыль

iTunes

Ральф против интернета

Лицензия

ПШазам

Лицензия

Оно 2

Лицензия

30
pack

Вам бонус

ВАЖНО

!!Акция!!

Alien_RageХит недели

RePack

Resident Evil 21

ИГРА 18+

pack

RePack

jed

!!Акция!!

Alien_Rage

RePack

fifa19

RePack

Assassins Creed: Odyssey

RePack

NEED FOR SPEED™ PAYBACK

3 сезон

9 сезон

Бесстыжие 9 сезон

Все сериалы

все сериалы на PB.wtf

RePack

FAR CRY 5
Ребята, катастрофически не хватает 1900р. для оплаты серверов за Октябрь (всвязи с блокировками трафик упал в 3 раза), 1-2р., выручайте.
  

Слепая / Blind (Эскиль Вогт) [2014, Норвегия, драма, DVDRip, Субтитры] pb.wtf

Слепая через торрент pb.wtf

Размер: 1.35 GB | Добавлен: 5 лет 3 мес. назад | Торрент скачан:60 раз
Скачать  

07-09-2014 04:53 Слепая Скачать торрент  

Слепая / Blind


Год выпуска: 2014
Страна: Норвегия
Жанр:драма
Продолжительность:01:31:59
Перевод:Субтитры русские
Режиссер:Эскиль Вогт

  • В ролях:
    Эллен Доррит Петерсен (Ingrid), Хенрик Рафаелсен (Morten), Вера Виталий (Elin), Marius Kolbenstvedt (Einar), Stella Kvam Young (Kim (girl)), Isak Nikolai Møller (Kim (boy)), Jacob Young (Elin's ex-husband), Nikki Butenschøn (Ove Kenneth), Erle Kyllingmark (Bente), Fredrik Sandahl (Cyclist), Aslag Guttormsgaard (Nice man), Veronica Berntsen (Young saleswoman)

  • Описание:
    После потери зрения Ингрид почти не покидает квартиру. Она еще не забыла облик окружающего мира, но образы, бывшие когда-то столь ясными, теперь заменяются мрачными видениями. Ингрид подозревает, что муж обманывает ее, говоря, что ходит на работу. Остается ли Мортен в квартире? Тихо передвигаясь, он рассматривает ее? Или, прикидываясь, что пишет электронное письмо коллеге, болтает с любовницей?
    Старый приятель Мортена по работе Эйнар большой любитель кино и музыки. Но вместо того, чтобы поощрять свою страсть, он бродит по просторам сетевого порно и шпионит за Элин, шведкой, что живет через улицу. После развода она потеряла всякую связь с обществом. Для нее начинаются абсурдные, необъяснимые события, а поговорить ей об этом не с кем, кроме десятилетней дочери.

  • Мировая премьера:19 января 2014

    Качество: DVDRip
    Формат:AVI
    Видео кодек: XviD
    Аудио кодек:AC3
    Видео: XviD, 720x384 (1.875), 1710 kbps, 25 fps, 0,247 bpp
    Аудио: AC3 / 5.1 / 48 kHz / 384 kbps / 16 bit


    Код:

    General
    Complete name                            : D:\Торенты\Слепая (Blind) (2014)\Слепая (Blind) (2014).avi
    Format                                   : AVI
    Format/Info                              : Audio Video Interleave
    File size                                : 1.35 GiB
    Duration                                 : 1h 31mn
    Overall bit rate                         : 2 104 Kbps
    Writing application                      : VirtualDubMod 1.5.10.3 | www.virtualdub-fr.org || (build 2550/release)
    Writing library                          : VirtualDubMod build 2550/release

    Video
    ID                                       : 0
    Format                                   : MPEG-4 Visual
    Format profile                           : Advanced Simple@L5
    Format settings, BVOP                    : 3
    Format settings, QPel                    : Yes
    Format settings, GMC                     : No warppoints
    Format settings, Matrix                  : Default (H.263)
    Codec ID                                 : XVID
    Codec ID/Hint                            : XviD
    Duration                                 : 1h 31mn
    Bit rate                                 : 1 710 Kbps
    Width                                    : 720 pixels
    Height                                   : 384 pixels
    Display aspect ratio                     : 1.875
    Frame rate                               : 25.000 fps
    Color space                              : YUV
    Chroma subsampling                       : 4:2:0
    Bit depth                                : 8 bits
    Scan type                                : Progressive
    Compression mode                         : Lossy
    Bits/(Pixel*Frame)                       : 0.247
    Stream size                              : 1.10 GiB (81%)
    Writing library                          : XviD 1.2.1 (UTC 2008-12-04)

    Audio
    ID                                       : 1
    Format                                   : AC-3
    Format/Info                              : Audio Coding 3
    Mode extension                           : CM (complete main)
    Codec ID                                 : 2000
    Duration                                 : 1h 31mn
    Bit rate mode                            : Constant
    Bit rate                                 : 384 Kbps
    Channel(s)                               : 6 channels
    Channel positions                        : Front: L C R, Side: L R, LFE
    Sampling rate                            : 48.0 KHz
    Bit depth                                : 16 bits
    Compression mode                         : Lossy
    Stream size                              : 253 MiB (18%)
    Alignment                                : Split accross interleaves
    Interleave, duration                     : 40 ms (1.00 video frame)
    Interleave, preload duration             : 500 ms

    Скриншоты:

    Срочно! Нужна помощь!
    Поблагодарить релизера!
    pb.wtf



  • Скачать Слепая через торрент http://pic.kartinco.top/images/6/stazu.jpg Скачать фильм Слепая через торрент бесплантно в хорошем качестве Описание:После потери зрения Ингрид почти не покидает квартиру. Она еще не забыла облик окружающего мира, но образы, бывшие когда-то столь ... 10 10 6
    Торрент: Зарегистрирован [2014-09-07 04:53] · скачан: 60 раз
    Статус: √ проверено
    Размер: 1.35 GB
    Как cкачать? Как скачать Слепая через торрент | qTorrent

    % Раздел Тема Автор DL S | L
    Зарубежные сериалы [ 28.61 GB ] Слепая зона / Слепое пятно / Blindspot / Сезон: 4 / Серии: 1-22 из 22 [2018 WEB-DL 720p] MVO [Lostfilm] bober100 Скачать
    1 | 0
    Зарубежные сериалы [ 61.39 GB ] Слепое пятно / Blindspot / Сезон: 4 / Серии: 1-22 из 22 [2018 WEB-DL 1080p] MVO [TVShows] bober100 Скачать
    1 | 0
    Зарубежные сериалы [ 10.81 GB ] Слепая зона / Слепое пятно / Blindspot / Сезон: 4 / Серии: 1-22 из 22 [2018 WEB-DLRip] MVO [AlexFilm] bober100 Скачать
    1 | 0
    T Ultra HD (UHD: 2K, 4K, 8K) — видео сверхвысокой чёткости [ 17.96 GB ] Слепые пятна / Blindspotting [2018 UHD WEBRip 2160p] [ ] sheker187 Скачать
    1 | 0
    Фильмы [HD 720p, 1080p] (Хороший звук DUB, MVO) [ 6.14 GB ] Слепые пятна / Blindspotting [2018 BDRip 720p] bober100 Скачать
    1 | 0
    Фильмы [HD 720p, 1080p] (Хороший звук DUB, MVO) [ 15 GB ] Слепые пятна / Blindspotting [2018 BDRip 1080p] bober100 Скачать
    1 | 0
    Фильмы (Blu-ray, BD-Remux, HDDVD) [ 26.74 GB ] Слепые пятна / Blindspotting [2018 BD Remux 1080p] bober100 Скачать
    1 | 0

    28-11-2019 20:33  

    Отключить всю рекламу на сайте

      Дорогой пользователь! Огромная просьба, поблагодарите релизера, оцените раздачу и оставьте свои комментарий, если Вы скачали Слепая через торрент бесплатно! Внесите свою лепту в развитие PiratBit!
      Комментировать посты могут только пользователи прошедшие не сложную регистрацию
      Показать сообщения:    

      Слепая через торрент
      Скачать бесплатно Слепая
      Слепая скачать торрент
      Слепая смотреть онлайн
      Cкачать фильм Слепая бесплатно
      Слепая скачать торрент в хорошем качестве
      Слепая смотреть онлайн бесплатно в хорошем качестве


      Вы не можете начинать темы
      Вы не можете отвечать на сообщения
      Вы не можете редактировать свои сообщения
      Вы не можете удалять свои сообщения
      Вы не можете голосовать в опросах
      Вы не можете прикреплять файлы к сообщениям
      Вы можете скачивать файлы