Ссылка на приватное зеркало нашего сайта всего за 1$. Внимание количество ограничено!!!

2 сезон

iTunes

1 сезон

1

2 сезон

2 сезон

iTunes

1 сезон

RePack

30

Ultimate

ВАЖНО

ИГРА 18+

pack

RePack

MK11
pack

Забери бонус

RePack

jed

!!Акция!!

Alien_Rage

RePack

fifa19

RePack

Assassins Creed: Odyssey

RePack

NEED FOR SPEED™ PAYBACK

4 сезон

9 сезон

Бесстыжие 9 сезон

Все сериалы

все сериалы на PB.wtf

RePack

FAR CRY 5
  

Трудная мишень / Hard Target (Джон Ву) [1993 г., Боевик, триллер, Blu-ray, Профессиональный многоголосый] pb.wtf

Трудная мишень через торрент pb.wtf

Размер: 30.29 GB | Добавлен: 6 лет 2 мес. назад | Торрент скачан:15 раз
Скачать  

07-09-2014 13:19 Трудная мишень Скачать торрент  

Трудная мишень / Hard Target
Год выпуска: 1993
Страна: США
Жанр: Боевик, триллер
Продолжительность: 01:39:33
Перевод: Профессиональный многоголосый+Итальянский+Немецкий+Испанский+Оригинал
Субтитры: Русские, английские, французские, итальянские, немецкие, испанские, чешские, датские, голландские, финские, греческие, венгерские корейские, норвежские, польские, португальские, шведские, тайские, турецкие, китайские, японские

Режиссер: Джон Ву

В ролях: Жан-Клод Ван Дамм, Чак Пфаррер, Роберт Аписа, Арнольд Вослу, Лэнс Хенриксен, Дуглас Форсайт Рай, Майк Лейнерт, Янси Батлер, Ленор Бэнкс, Уилли С. Карпентер, Барбара Таскер, Кейси Леммонс, Рэнди Шерами, Элиотт Кинер, Роберт Павлович, Марко Ст. Джон, Джо Уорфилд, Жанетт Контомитра, Тед Рэйми, Том Люпо, Жуль Сильвестр, Дэвид Эфрон, Уилфорд Бримли

Описание: Мужественный герой неутомимого Ван Дамма пытается помочь молодой красавице найти ее отца, ветерана вьетнамской войны, пропавшего без вести не на полях сражений, а в родной стране, а в результате — вынужден не на жизнь, а на смерть схватиться с бандой патологических злодеев, которые используют несчастных бездомных в качестве жертв своей жестокой и опасной игры.

Качество: Blu-ray
Формат: BDMV
Видео кодек: H.264
Аудио кодек: DTS
Видео: MPEG-4 AVC, (1920x1080),31623 Кбит/с, 23.976 кадра/сек
Аудио#1: DTS 6 ch,1509 kbps (Eng) 48.0 KHz Оригинал
Аудио#2: DTS 6 ch,768 kbps (Rus) 48.0 KHz Профессиональный многоголосый
Аудио#3: DTS 2 ch,768 kbps (Ital) 48.0 KHz Итальянский
Аудио#4: DTS 2 ch,768 kbps (Germ) 48.0 KHz Немецкий
Аудио#5: DTS 2 ch,768 kbps (Span) 48.0 KHz Испанский
Аудио#6: DTS 2 ch,447 kbps (Span) 48.0 KHz Испанский
скриншот   скриншот   скриншот  

Тип потока: Видео
Длительность: 01:39:33
Кодек: VC-1
Кодек/профиль: Advanced@L3
Кодек/ID: 234
Размеры изображения: 1920 x 1080 (16:9)
Частота кадров: 23.976 fps
Метод сжатия: Lossy
Цветовое пространство: YUV
Тип развёртки: Progressive
Колориметрия: 4:2:0
Глубина: 8 bits
:
Тип потока: Звук #1
Длительность: 01:39:33.589
Кодек: DTS
Кодек/описание: Digital Theater Systems
Кодек/профиль: MA / Core
Режим смешивания: Stream extension
Кодек/ID: 134
Частота дискретизации: 48.0 KHz
Каналов: 6 channels
Битрейт: Unknown / 1 509 Kbps
Битрейт/тип: Variable
Глубина: 24 bits
Метод сжатия: Lossless / Lossy
:
Тип потока: Звук #2
Длительность: 01:39:33.611
Кодек: DTS
Кодек/описание: Digital Theater Systems
Кодек/ID: 130
Частота дискретизации: 48.0 KHz
Каналов: 6 channels
Битрейт: 768 Kbps
Битрейт/тип: Constant
Размер потока: 547 MiB (2%)
Глубина: 24 bits
Метод сжатия: Lossy
:
Тип потока: Звук #3
Длительность: 01:39:33.600
Кодек: DTS
Кодек/описание: Digital Theater Systems
Кодек/ID: 130
Частота дискретизации: 48.0 KHz
Каналов: 2 channels
Битрейт: 768 Kbps
Битрейт/тип: Constant
Размер потока: 547 MiB (2%)
Глубина: 24 bits
Метод сжатия: Lossy
:
Тип потока: Звук #4
Длительность: 01:39:33.600
Кодек: DTS
Кодек/описание: Digital Theater Systems
Кодек/ID: 130
Частота дискретизации: 48.0 KHz
Каналов: 2 channels
Битрейт: 768 Kbps
Битрейт/тип: Constant
Размер потока: 547 MiB (2%)
Глубина: 24 bits
Метод сжатия: Lossy
:
Тип потока: Звук #5
Длительность: 01:39:33.600
Кодек: DTS
Кодек/описание: Digital Theater Systems
Кодек/ID: 130
Частота дискретизации: 48.0 KHz
Каналов: 2 channels
Битрейт: 768 Kbps
Битрейт/тип: Constant
Размер потока: 547 MiB (2%)
Глубина: 24 bits
Метод сжатия: Lossy
:
Тип потока: Звук #6
Длительность: 01:39:33.600
Кодек: DTS
Кодек/описание: Digital Theater Systems
Кодек/ID: 130
Частота дискретизации: 48.0 KHz
Каналов: 2 channels
Битрейт: 447 Kbps
Битрейт/тип: Constant
Размер потока: 318 MiB (1%)
Глубина: 24 bits
Метод сжатия: Lossy
:
Тип потока: Субтитры #1
Формат: PGS
:
Тип потока: Субтитры #2
Формат: PGS
:
Тип потока: Субтитры #3
Формат: PGS
:
Тип потока: Субтитры #4
Формат: PGS
:
Тип потока: Субтитры #5
Формат: PGS
:
Тип потока: Субтитры #6
Формат: PGS
:
Тип потока: Субтитры #7
Формат: PGS
:
Тип потока: Субтитры #8
Формат: PGS
:
Тип потока: Субтитры #9
Формат: PGS
:
Тип потока: Субтитры #10
Формат: PGS
:
Тип потока: Субтитры #11
Формат: PGS
:
Тип потока: Субтитры #12
Формат: PGS
:
Тип потока: Субтитры #13
Формат: PGS
:
Тип потока: Субтитры #14
Формат: PGS
:
Тип потока: Субтитры #15
Формат: PGS
:
Тип потока: Субтитры #16
Формат: PGS
:
Тип потока: Субтитры #17
Формат: PGS
:
Тип потока: Субтитры #18
Формат: PGS
:
Тип потока: Субтитры #19
Формат: PGS
:
Тип потока: Субтитры #20
Формат: PGS
:
Тип потока: Субтитры #21
Формат: PGS
:
Тип потока: Субтитры #22
Формат: PGS
:
Тип потока: Субтитры #23
Формат: PGS
:
Тип потока: Субтитры #24
Формат: PGS
:
Тип потока: Субтитры #25
Формат: PGS
:
Тип потока: Субтитры #26
Формат: PGS
:
Тип потока: Субтитры #27
Формат: PGS

pb.wtf



Скачать Трудная мишень через торрент http://pic.kartinco.top/images/7/jv259.jpg Скачать фильм Трудная мишень через торрент бесплантно в хорошем качестве Описание: Мужественный герой неутомимого Ван Дамма пытается помочь молодой красавице найти ее отца, ветерана вьетнамской войны, пропавшего ... 9.5 10 12
Info! Золотая раздача, скачанное не засчитывается.
Торрент: Зарегистрирован [2014-09-07 13:19] · скачан: 15 раз
Статус: √ проверено
Размер: 30.29 GB
Как cкачать? Как скачать Трудная мишень через торрент | qTorrent

% Раздел Тема Автор DL S | L
Фильмы (Blu-ray, BD-Remux, HDDVD) [ 40.56 GB ] Трудная мишень 2 / Hard Target 2 [2016 Blu-Ray CEE] Russian Mafia Скачать
1 | 0
Фильмы 2016 [DVDrip, WEB-DLRip, HDrip] (DUB, MVO) [ 1.37 GB ] Трудная мишень 2 / Hard Target 2 [2016 HDRip ] sanekbest1 Скачать
1 | 0
Фильмы 2016 [DVDrip, WEB-DLRip, HDrip] (DUB, MVO) [ 2.05 GB ] Трудная мишень 2 / Hard Target 2 [2016 HDRip "BD CEE"] coc900 Скачать
1 | 0
Фильмы [HD 720p, 1080p] (Хороший звук DUB, MVO) [ 6.84 GB ] Трудная мишень 2 / Hard Target 2 [2016 BDRip 720p] [] smaster Скачать
1 | 0
Фильмы 2016 [DVDrip, WEB-DLRip, HDrip] (DUB, MVO) [ 1.46 GB ] Трудная мишень 2 / Hard Target 2 [2016 BDRip - [] Twi7ter Скачать
1 | 0
Фильмы [HD 720p, 1080p] (Хороший звук DUB, MVO) [ 11.16 GB ] Трудная мишень 2 / Hard Target 2 [2016 BDRip 1080p] [] smaster Скачать
1 | 0
Фильмы (Blu-ray, BD-Remux, HDDVD) [ 16.21 GB ] Трудная мишень 2 / Hard Target 2 [2016 BDRemux 1080p] от ExKinoRay / Russian Mafia Скачать
1 | 0

28-11-2019 20:33  

Отключить всю рекламу на сайте

07-09-2014 13:23 Трудная мишень Скачать торрент  

фильм класс советую всемpb.wtf



07-09-2014 14:03 Трудная мишень Скачать торрент  

Это уже классика жанра . Один из лучших , если не лучший фильм с Жан-Клод Ван Даммом.pb.wtf



07-09-2014 18:39 Трудная мишень Скачать торрент  

Ооо от души, фильмец и правда суперский, посмотрю ещё разок, автору спасибо!) pb.wtf



    Дорогой пользователь! Огромная просьба, поблагодарите релизера, оцените раздачу и оставьте свои комментарий, если Вы скачали Трудная мишень через торрент бесплатно! Внесите свою лепту в развитие PiratBit!
    Комментировать посты могут только пользователи прошедшие не сложную регистрацию
    Показать сообщения:    

    Трудная мишень через торрент
    Скачать бесплатно Трудная мишень
    Трудная мишень скачать торрент
    Трудная мишень смотреть онлайн
    Cкачать фильм Трудная мишень бесплатно
    Трудная мишень скачать торрент в хорошем качестве
    Трудная мишень смотреть онлайн бесплатно в хорошем качестве


    Вы не можете начинать темы
    Вы не можете отвечать на сообщения
    Вы не можете редактировать свои сообщения
    Вы не можете удалять свои сообщения
    Вы не можете голосовать в опросах
    Вы не можете прикреплять файлы к сообщениям
    Вы можете скачивать файлы