2 сезон

iTunes

MVO

1

2 сезон

iTunes

iTunes

1 сезон

RePack

30

Новинка

ВАЖНО

ИГРА 18+

pack

RePack

MK11
pack

Легкие деньги

RePack

jed

RePack

fifa19

RePack

RDR2

RePack

NEED FOR SPEED™ PAYBACK

4 сезон

9 сезон

Бесстыжие 9 сезон

Все сериалы

все сериалы на PB.wtf

RePack

FAR CRY 5

Anonymous, доброй ночи, мы не успеваем собрать деньги на оплату серверов за декабрь и январь, помогите нам пожалуйста в это трудное время. В качестве благодарности мы отключим Вам всю рекламу на сайте (укажите свой ник в строку Ваше имя)!

×
  
Magnet ссылка

Первопроходец / Pioneer (Эрик Шёлдбьерг / Erik Skjoldbjærg) [2013, Норвегия, Германия, Швеция, Франция, Финляндия, триллер, HDRip, Профессиональный (двухголосый)[студия NLS] pb.wtf

Первопроходец через торрент pb.wtf

Размер: 1.46 GB | Добавлен: 6 лет 4 мес. назад | Торрент скачан:433 раза
Скачать  

08-09-2014 04:01 Первопроходец Скачать торрент  

Первопроходец / Pioneer


  • Год выпуска: 2013
  • Страна: Норвегия, Германия, Швеция, Франция, Финляндия
  • Жанр: триллер
  • Продолжительность: 01:51:14
  • Перевод: Профессиональный (двухголосый)[студия NLS]

  • Режиссер: Эрик Шёлдбьерг / Erik Skjoldbjærg
  • В ролях:

    Уэс Бентли (Mike), Стивен Лэнг (Ferris), Аксель Хенни (Petter), Стефани Сигман (Maria), Джонатан ЛаПалья (Ronald), Эни Даль Торп (Pia), Ёрген Лангхелле (Leif), Андре Эриксен (Knut), Арни Линдтнер Нэсс (Minister), Йеркер Фальстрём (Jørgen's father), Дэвид А. Ёргенсон (Jørgen), Эндре Хеллествейт (Trond)

  • Описание:
    Начало 1980-х гг. В Северном море обнаружены огромные запасы нефти и газа. В начале норвежского нефтяного бума власти намерены любой ценой доставлять на берег «черное» и «голубое золото» планеты по трубопроводу с глубины 500 метров, перед этим проводя разведку месторождения. Профессиональный дайвер Петтер, одержимый идеей достижения дна Норвежского моря, - полон решимости, силы и мужества, чтобы браться за самую опасную в мире работу и спуститься на эту глубину. Но неожиданная случайность меняет все. И теперь Петтер отправляется в опасное путешествие, в котором он теряет из вида того, кто дергает за ниточки в этой многомиллионной игре, постепенно понимая, что он оказывается на его пути и что его жизнь находится под угрозой.
  • Рейтинг:



  • Качество: HDRip
  • Формат: :AVI
  • Видео кодек: XviD
  • Аудио кодек: AC3
  • Видео: 720x304 (2.35:1), 1477 kbps, 24 fps, 0,281 bpp
  • Аудио №1: русский / 2.0 / 48 kHz / 192 kbps / 16 bit
  • Аудио №2: Норвежский 2.0 / 48 kHz / 192 kbps / 16 bit
  • Релиз от: GEKADOL
    Не нашли то, что искали? Для вас "Стол заказов" "Жмём сюда!"

    Код:

    Общее
    Полное имя                               : D:\Фильмы\Pervoprohodec.2013.P2.HDRip.1.46Gb.avi
    Формат                                   : AVI
    Формат/Информация                        : Audio Video Interleave
    Размер файла                             : 1,46 Гбайт
    Продолжительность                        : 1 ч. 51 м.
    Общий поток                              : 1876 Кбит/сек
    Название фильма                          : Pervoprohodec.2013
    Формат оригинала/Распространитель        : Pioneer.2013.1080p.BluRay.DTS.x264.mkv
    Жанр                                     : Thriller / Historical
    Правообладатель                          : 25KADR
    Примечание                               : DVO (NLS studio)

    Видео
    Идентификатор                            : 0
    Формат                                   : MPEG-4 Visual
    Профиль формата                          : Advanced Simple@L5
    Параметр BVOP формата                    : 2
    Параметр QPel формата                    : Нет
    Параметр GMC формата                     : Без точки перехода
    Параметр матрицы формата                 : Default (MPEG)
    Режим смешивания                         : Сжатый битовый поток
    Идентификатор кодека                     : XVID
    Идентификатор кодека/Подсказка           : XviD
    Продолжительность                        : 1 ч. 51 м.
    Битрейт                                  : 1478 Кбит/сек
    Ширина                                   : 720 пикселей
    Высота                                   : 304 пикселя
    Соотношение сторон                       : 2,35:1
    Частота кадров                           : 24,000 кадра/сек
    Цветовое пространство                    : YUV
    Субдискретизация насыщенности            : 4:2:0
    Битовая глубина                          : 8 бит
    Тип развёртки                            : Прогрессивная
    Метод сжатия                             : С потерями
    Бит/(Пиксели*Кадры)                      : 0.281
    Размер потока                            : 1,15 Гбайт (79%)
    Библиотека кодирования                   : XviD 64

    Аудио #1
    Идентификатор                            : 1
    Формат                                   : AC-3
    Формат/Информация                        : Audio Coding 3
    Расширение режима                        : CM (complete main)
    Параметр Endianness формата              : Big
    Идентификатор кодека                     : 2000
    Продолжительность                        : 1 ч. 51 м.
    Вид битрейта                             : Постоянный
    Битрейт                                  : 192 Кбит/сек
    Каналы                                   : 2 канала
    Расположение каналов                     : Front: L R
    Частота                                  : 48,0 КГц
    Битовая глубина                          : 16 бит
    Метод сжатия                             : С потерями
    Размер потока                            : 153 Мбайт (10%)
    Выравнивание                             : Разделение по промежуткам
    Продолжительность промежутка             : 42  мс. (1,00 видеокадр)
    Время предзагрузки промежутка            : 500  мс.
    Язык                                     : Russian

    Аудио #2
    Идентификатор                            : 2
    Формат                                   : AC-3
    Формат/Информация                        : Audio Coding 3
    Расширение режима                        : CM (complete main)
    Параметр Endianness формата              : Big
    Идентификатор кодека                     : 2000
    Продолжительность                        : 1 ч. 51 м.
    Вид битрейта                             : Постоянный
    Битрейт                                  : 192 Кбит/сек
    Каналы                                   : 2 канала
    Расположение каналов                     : Front: L R
    Частота                                  : 48,0 КГц
    Битовая глубина                          : 16 бит
    Метод сжатия                             : С потерями
    Размер потока                            : 153 Мбайт (10%)
    Выравнивание                             : Разделение по промежуткам
    Продолжительность промежутка             : 42  мс. (1,00 видеокадр)
    Время предзагрузки промежутка            : 500  мс.


    Скриншоты:


    pb.wtf



  • Скачать Первопроходец через торрент http://i68.fastpic.ru/big/2014/0908/6c/420ed00b7eb2c57b31a371f4fd28626c.jpg Скачать фильм Первопроходец через торрент бесплантно в хорошем качестве Описание: Начало 1980-х гг. В Северном море обнаружены огромные запасы нефти и газа. В начале норвежского нефтяного бума власти намерены ... 8.3 10 22
    Торрент: Зарегистрирован [2014-09-08 04:01] · скачан: 433 раз
    Статус: √ проверено
    Размер: 1.46 GB
    Как cкачать? Как скачать Первопроходец через торрент | UTorrent

    % Раздел Тема Автор DL S | L
    Фильмы 2013 [DVDrip, WEB-DLRip, HDrip] [ 2.04 GB ] Первопроходец / Pioneer [2013 HDRip Ворон Скачать
    1 | 0
    Фильмы [HD 720p, 1080p] (Хороший звук DUB, MVO) [ 8.79 GB ] Первопроходец / Pioneer [2013 BDRip 1080p Ворон Скачать
    1 | 0
    T Фильмы 2013 (Звук TS, Cam, VO, DVO) [ 1.36 GB ] Первопроходец / Pioneer [2013 Норвегия Германия Швеция Финляндия HDRipЛюбительский [datynet] Ворон Скачать
    1 | 0

    28-11-2019 20:33  

    Отключить всю рекламу на сайте


    08-09-2014 09:09 Первопроходец Скачать торрент  

    ....он теряет из вида того, кто дергает за ниточки в этой многомиллионной игре....
    у америкосов связь прервалась?
    по-сути: довольно интересная фабула, спасибо за раздачуpb.wtf



      Дорогой пользователь! Огромная просьба, поблагодарите релизера, оцените раздачу и оставьте свои комментарий, если Вы скачали Первопроходец через торрент бесплатно! Внесите свою лепту в развитие PiratBit!
      Комментировать посты могут только пользователи прошедшие не сложную регистрацию
      Показать сообщения:    

      Первопроходец через торрент
      Скачать бесплатно Первопроходец
      Первопроходец скачать торрент
      Первопроходец смотреть онлайн
      Cкачать фильм Первопроходец бесплатно
      Первопроходец скачать торрент в хорошем качестве
      Первопроходец смотреть онлайн бесплатно в хорошем качестве


      Вы не можете начинать темы
      Вы не можете отвечать на сообщения
      Вы не можете редактировать свои сообщения
      Вы не можете удалять свои сообщения
      Вы не можете голосовать в опросах
      Вы не можете прикреплять файлы к сообщениям
      Вы можете скачивать файлы