Ссылка на приватное зеркало нашего сайта всего за 1$. Внимание количество ограничено!!!

2 сезон

iTunes

1 сезон

1

2 сезон

2 сезон

iTunes

1 сезон

RePack

30

Ultimate

ВАЖНО

ИГРА 18+

pack

RePack

MK11
pack

Забери бонус

RePack

jed

!!Акция!!

Alien_Rage

RePack

fifa19

RePack

Assassins Creed: Odyssey

RePack

NEED FOR SPEED™ PAYBACK

4 сезон

9 сезон

Бесстыжие 9 сезон

Все сериалы

все сериалы на PB.wtf

RePack

FAR CRY 5
  

Папина доченька / Daddy's Little Girl (Крис Сан) [2012 г., Ужасы, триллер, BDRip 1080p, Любительский двухголосый] pb.wtf

Папина доченька через торрент pb.wtf

Размер: 6.27 GB | Добавлен: 6 лет 2 мес. назад | Торрент скачан:78 раз
Скачать  

09-09-2014 05:04 Папина доченька Скачать торрент  

Папина доченька / Daddy's Little Girl

Год выпуска: 2012
Страна: Австралия
Жанр: Ужасы, триллер
Продолжительность: 01:47:00
Перевод: Любительский двухголосый [den904 & DeadSno]
Субтитры: Отсутствуют

Режиссер: Крис Сан

Премьера в мире: 8 января 2014

Бюджет: AUD 500 000



В ролях: Билли Бэйкер, Майкл Томсон, Аллира Жак, Холли Филлипс, Ребекка Плинт, Шон Гэннон, Кристиан Редфорд, Даррел Пламридж, Мирко Гриллини, Мэделайн Кэмпбелл

Описание: Шесть лет любящий отец холит и лелеет свою дочурку, белокурого ангела.. И вот однажды ребенок пропадает из собственного дома. Через несколько часов полицейские находят растерзанное тело девочки. Шесть месяцев проходит, а убийцу так никто и не может найти. И лишь роковое стечение обстоятельство помогает безутешному отцу выследить убийцу и наказать так, чтобы он и все детоубийцы и педофилы надолго запомнили эти шесть дней.

Качество: BDRip 1080p
Формат: MKV
Видео кодек: MPEG4
Аудио кодек: AC3, DTS
Видео: 1920x816, 5166 Кбит/сек, 24,000 кадра/сек, 0.137bpp
Аудио#1: AC3, 192 Кбит/сек, 2 каналов, 48,0 КГц
Аудио#2: DTS, 1509 Кбит/сек, 6 каналов, 48,0 КГц (английский)
Аудио#3: DTS, 1509 Кбит/сек, 6 каналов, 48,0 КГц (немецкий)






Полное имя : D:\КИНО\Daddys.Little.Girl.2012.BluRay.1080p.CINEMANIA.mkv
Формат : Matroska
Версия формата : Version 4 / Version 2
Размер файла : 6,27 Гбайт
Продолжительность : 1 ч. 47 м.
Общий поток : 8368 Кбит/сек
Название фильма : Release Group CINEMANIA
Дата кодирования : UTC 2014-09-08 08:54:46
Программа кодирования : mkvmerge v7.1.0 ('Good Love') 64bit built on Jul 27 2014 13:06:55
Библиотека кодирования : libebml v1.3.0 + libmatroska v1.4.1

Видео
Идентификатор : 1
Формат : AVC
Формат/Информация : Advanced Video Codec
Профиль формата : High@L4.1
Параметр CABAC формата : Да
Параметр ReFrames формата : 4 кадра
Идентификатор кодека : V_MPEG4/ISO/AVC
Продолжительность : 1 ч. 47 м.
Битрейт : 5166 Кбит/сек
Ширина : 1920 пикселей
Высота : 816 пикселей
Соотношение сторон : 2,35:1
Режим частоты кадров : Постоянный
Частота кадров : 24,000 кадра/сек
Цветовое пространство : YUV
Субдискретизация насыщенности : 4:2:0
Битовая глубина : 8 бит
Тип развёртки : Прогрессивная
Бит/(Пиксели*Кадры) : 0.137
Размер потока : 3,74 Гбайт (60%)
Заголовок : Release Group CINEMANIA
Библиотека кодирования : x264 core 140 r2377 1ca7bb9
Настройки программы : cabac=1 / ref=5 / deblock=1:-3:-3 / analyse=0x3:0x133 / me=umh / subme=7 / psy=1 / psy_rd=1.00:0.15 / mixed_ref=1 / me_range=16 / chroma_me=1 / trellis=2 / 8x8dct=1 / cqm=0 / deadzone=21,11 / fast_pskip=1 / chroma_qp_offset=-3 / threads=12 / lookahead_threads=3 / sliced_threads=0 / nr=0 / decimate=1 / interlaced=0 / bluray_compat=0 / constrained_intra=0 / bframes=5 / b_pyramid=1 / b_adapt=2 / b_bias=0 / direct=1 / weightb=1 / open_gop=0 / weightp=2 / keyint=240 / keyint_min=24 / scenecut=40 / intra_refresh=0 / rc_lookahead=30 / rc=2pass / mbtree=1 / bitrate=5166 / ratetol=1.0 / qcomp=0.60 / qpmin=0 / qpmax=69 / qpstep=4 / cplxblur=20.0 / qblur=0.5 / ip_ratio=1.40 / aq=1:1.00
Язык : English
Default : Да
Forced : Нет

Аудио #1
Идентификатор : 2
Формат : AC-3
Формат/Информация : Audio Coding 3
Расширение режима : CM (complete main)
Параметр Endianness формата : Big
Идентификатор кодека : A_AC3
Продолжительность : 1 ч. 47 м.
Вид битрейта : Постоянный
Битрейт : 192 Кбит/сек
Каналы : 2 канала
Расположение каналов : Front: L R
Частота : 48,0 КГц
Битовая глубина : 16 бит
Метод сжатия : С потерями
Размер потока : 147 Мбайт (2%)
Заголовок : Влад и Снежинка
Язык : Russian
Default : Да
Forced : Да

Аудио #2
Идентификатор : 3
Формат : DTS
Формат/Информация : Digital Theater Systems
Режим : 16
Параметр Endianness формата : Big
Идентификатор кодека : A_DTS
Продолжительность : 1 ч. 47 м.
Вид битрейта : Постоянный
Битрейт : 1509 Кбит/сек
Каналы : 6 каналов
Расположение каналов : Front: L C R, Side: L R, LFE
Частота : 48,0 КГц
Битовая глубина : 24 бит
Метод сжатия : С потерями
Задержка видео : 11 мс.
Размер потока : 1,13 Гбайт (18%)
Язык : English
Default : Нет
Forced : Нет

Аудио #3
Идентификатор : 4
Формат : DTS
Формат/Информация : Digital Theater Systems
Режим : 16
Параметр Endianness формата : Big
Идентификатор кодека : A_DTS
Продолжительность : 1 ч. 47 м.
Вид битрейта : Постоянный
Битрейт : 1509 Кбит/сек
Каналы : 6 каналов
Расположение каналов : Front: L C R, Side: L R, LFE
Частота : 48,0 КГц
Битовая глубина : 24 бит
Метод сжатия : С потерями
Задержка видео : 11 мс.
Размер потока : 1,13 Гбайт (18%)
Язык : German
Default : Нет
Forced : Нет

Меню
00:00:00.000 : en:Chapter 01
00:12:19.625 : en:Chapter 02
00:17:31.500 : en:Chapter 03
00:23:55.166 : en:Chapter 04
00:33:03.541 : en:Chapter 05
00:42:31.458 : en:Chapter 06
00:51:44.833 : en:Chapter 07
01:05:17.041 : en:Chapter 08
01:11:01.375 : en:Chapter 09
01:15:55.916 : en:Chapter 10
01:27:39.000 : en:Chapter 11
01:36:43.291 : en:Chapter 12
01:43:24.833 : en:Chapter 13
01:47:17.416 : en:Chapter 14

Сохранены оригинальные чаптеры как на Blu-ray
pb.wtf



Скачать Папина доченька через торрент http://pic.kartinco.top/images/7/rwh5n.jpg Скачать фильм Папина доченька через торрент бесплантно в хорошем качестве Описание: Шесть лет любящий отец холит и лелеет свою дочурку, белокурого ангела.. И вот однажды ребенок пропадает из собственного дома. ... 9.2 10 6
Торрент: Зарегистрирован [2014-09-09 05:04] · скачан: 78 раз
Статус: T временная
Размер: 6.27 GB
Как cкачать? Как скачать Папина доченька через торрент | qTorrent



Последний раз редактировалось: _KaisiK_ (2014-09-17 15:42), всего редактировалось 1 раз

28-11-2019 20:33  

Отключить всю рекламу на сайте

    Дорогой пользователь! Огромная просьба, поблагодарите релизера, оцените раздачу и оставьте свои комментарий, если Вы скачали Папина доченька через торрент бесплатно! Внесите свою лепту в развитие PiratBit!
    Комментировать посты могут только пользователи прошедшие не сложную регистрацию
    Показать сообщения:    

    Папина доченька через торрент
    Скачать бесплатно Папина доченька
    Папина доченька скачать торрент
    Папина доченька смотреть онлайн
    Cкачать фильм Папина доченька бесплатно
    Папина доченька скачать торрент в хорошем качестве
    Папина доченька смотреть онлайн бесплатно в хорошем качестве


    Вы не можете начинать темы
    Вы не можете отвечать на сообщения
    Вы не можете редактировать свои сообщения
    Вы не можете удалять свои сообщения
    Вы не можете голосовать в опросах
    Вы не можете прикреплять файлы к сообщениям
    Вы можете скачивать файлы