2 сезон

iTunes

MVO

1

2 сезон

iTunes

iTunes

1 сезон

RePack

30

Ultimate

ВАЖНО

ИГРА 18+

pack

RePack

MK11
pack

Легкие деньги

RePack

jed

RePack

fifa19

RePack

RDR2

RePack

NEED FOR SPEED™ PAYBACK

4 сезон

9 сезон

Бесстыжие 9 сезон

Все сериалы

все сериалы на PB.wtf

RePack

FAR CRY 5

Anonymous, доброе утро, мы не успеваем собрать деньги на оплату серверов за декабрь и январь, помогите нам пожалуйста в это трудное время. В качестве благодарности мы отключим Вам всю рекламу на сайте (укажите свой ник в строку Ваше имя)!

×
  
Magnet ссылка

Работодатель / The Employer (Фрэнк Мерле) [2013 г., Триллер, HDRip, Профессиональный многоголосый, Лицензия] pb.wtf

Работодатель через торрент pb.wtf

Размер: 1.37 GB | Добавлен: 6 лет 4 мес. назад | Торрент скачан:407 раз
Скачать  

09-09-2014 06:38 Работодатель Скачать торрент  

Работодатель / The Employer

Год выпуска: 2013
Страна: США
Жанр: Триллер
Продолжительность: 01:28:50
Перевод: Профессиональный многоголосый, Лицензия
Субтитры: Отсутствуют

Режиссер: Фрэнк Мерле

Премьера в мире: 25 апреля 2013




В ролях: Малкольм МакДауэлл, Давид Дастмалчян, Пейдж Ховард, Майкл ДеЛоренцо, Мэттью Уиллиг, Катерина Микайленко, Билли Зейн, Никки Эйкокс, Дэниэл Алдема, Марк Александр Херц

Описание: Пять кандидатов проходили собеседование на работу в большой, успешный конгломерат, чей бизнес окутан тайной. В ночь перед последним этапом собеседования их всех похищают и накачивают наркотиками. На следующий день они просыпаются вместе в запертой комнате, и далее события пойдут совсем не так, как они ожидали…

Качество: HDRip
Формат: AVI
Видео кодек: XviD
Аудио кодек: AC3
Видео: 720x400, 1746 Кбит/сек, 23,976 кадра/сек, 0.253bpp
Аудио#1: AC3, 448 Кбит/сек, 6 каналов, 48,0 КГц






Полное имя : D:\КИНО\Rabotadatelj.2013.avi
Формат : AVI
Формат/Информация : Audio Video Interleave
Размер файла : 1,37 Гбайт
Продолжительность : 1 ч. 28 м.
Общий поток : 2203 Кбит/сек
Программа кодирования : VirtualDubMod 1.5.10.3 | www.virtualdub-fr.org || (build 2550/release)
Библиотека кодирования : VirtualDubMod build 2550/release

Видео
Идентификатор : 0
Формат : MPEG-4 Visual
Профиль формата : Advanced Simple@L5
Параметр BVOP формата : 2
Параметр QPel формата : Нет
Параметр GMC формата : Без точки перехода
Параметр матрицы формата : Default (MPEG)
Идентификатор кодека : XVID
Идентификатор кодека/Подсказка : XviD
Продолжительность : 1 ч. 28 м.
Битрейт : 1746 Кбит/сек
Ширина : 720 пикселей
Высота : 400 пикселей
Соотношение сторон : 16:9
Частота кадров : 23,976 кадра/сек
Цветовое пространство : YUV
Субдискретизация насыщенности : 4:2:0
Битовая глубина : 8 бит
Тип развёртки : Прогрессивная
Метод сжатия : С потерями
Бит/(Пиксели*Кадры) : 0.253
Размер потока : 1,08 Гбайт (79%)
Библиотека кодирования : XviD 1.2.1 (UTC 2008-12-04)

Аудио
Идентификатор : 1
Формат : AC-3
Формат/Информация : Audio Coding 3
Расширение режима : CM (complete main)
Параметр Endianness формата : Big
Идентификатор кодека : 2000
Продолжительность : 1 ч. 28 м.
Вид битрейта : Постоянный
Битрейт : 448 Кбит/сек
Каналы : 6 каналов
Расположение каналов : Front: L C R, Side: L R, LFE
Частота : 48,0 КГц
Битовая глубина : 16 бит
Метод сжатия : С потерями
Размер потока : 285 Мбайт (20%)
Выравнивание : Разделение по промежуткам
Продолжительность промежутка : 42 мс. (1,00 видеокадр)
Время предзагрузки промежутка : 500 мс.

pb.wtf



Скачать Работодатель через торрент http://pic.kartinco.top/images/7/z27hf.jpg Скачать фильм Работодатель через торрент бесплантно в хорошем качестве Описание: Пять кандидатов проходили собеседование на работу в большой, успешный конгломерат, чей бизнес окутан тайной. В ночь перед ... 10 10 13
Торрент: Зарегистрирован [2014-09-09 06:38] · скачан: 407 раз
Статус: √ проверено
Размер: 1.37 GB
Как cкачать? Как скачать Работодатель через торрент | UTorrent

% Раздел Тема Автор DL S | L
Фильмы (DVD фильмы) [ 4.08 GB ] Работодатель / The Employer [2013 DVD5] R5 voovaz Скачать
1 | 0
Фильмы 2013 [DVDrip, WEB-DLRip, HDrip] [ 1.46 GB ] Работодатель / The Employer [2013 DVDRip многоголосый ] кэп Скачать
1 | 0
Фильмы 2012 [ 2.18 GB ] Работодатель / The Employer [2012 DVDRip многоголосый ] coc900 Скачать
1 | 0

28-11-2019 20:33  

Отключить всю рекламу на сайте

    Дорогой пользователь! Огромная просьба, поблагодарите релизера, оцените раздачу и оставьте свои комментарий, если Вы скачали Работодатель через торрент бесплатно! Внесите свою лепту в развитие PiratBit!
    Комментировать посты могут только пользователи прошедшие не сложную регистрацию
    Показать сообщения:    

    Работодатель через торрент
    Скачать бесплатно Работодатель
    Работодатель скачать торрент
    Работодатель смотреть онлайн
    Cкачать фильм Работодатель бесплатно
    Работодатель скачать торрент в хорошем качестве
    Работодатель смотреть онлайн бесплатно в хорошем качестве


    Вы не можете начинать темы
    Вы не можете отвечать на сообщения
    Вы не можете редактировать свои сообщения
    Вы не можете удалять свои сообщения
    Вы не можете голосовать в опросах
    Вы не можете прикреплять файлы к сообщениям
    Вы можете скачивать файлы