Ссылка на приватное зеркало нашего сайта всего за 1$. Внимание количество ограничено!!!

2 сезон

iTunes

1 сезон

1

iTunes

iTunes

iTunes

1 сезон

RePack

30

ИГРА 18+

pack

ВАЖНО

!!Акция!!

Alien_RageХит недели

RePack

MK11
pack

Забери бонус

RePack

jed

!!Акция!!

Alien_Rage

RePack

fifa19

RePack

Assassins Creed: Odyssey

RePack

NEED FOR SPEED™ PAYBACK

4 сезон

9 сезон

Бесстыжие 9 сезон

Все сериалы

все сериалы на PB.wtf

RePack

FAR CRY 5
  

Миллион способов потерять голову / A Million Ways to Die in the West (Сет МакФарлейн / Seth MacFarlane) [2014, комедия, вестерн, BDRip 1080p, DUB, Лицензия] от R.G. HD-Films pb.wtf

Миллион способов потерять голову через торрент pb.wtf

Размер: 9.07 GB | Добавлен: 6 лет 1 мес. назад | Торрент скачан:667 раз
Скачать  

09-09-2014 16:41 Миллион способов потерять голову Скачать торрент  

Миллион способов потерять голову / A Million Ways to Die in the West
«From the guy who brought you Ted»



Год выпуска: 2014
Страна: США
Жанр: комедия, вестерн
Продолжительность: 01:55:54
Перевод: Дублированный [Лицензия]
Субтитры: Русские (Полные)



Режиссер:
  • Сет МакФарлейн / Seth MacFarlane
В ролях:
  • Сет МакФарлейн, Шарлиз Терон, Аманда Сайфред, Лиам Нисон, Джованни Рибизи, Нил Патрик Харрис, Сара Силверман, Кристофер Хэйген, Уэс Стьюди, Мэтт Кларк, Ивэн Джонс, Аарон МакФерсон

Описание: Угораздило же влюбиться не в том месте и не в то время. Здесь хамят в ресторанах, о горячей воде слагают легенды, да и с транспортом полный коллапс. Но у таинственной незнакомки отменная фигура, да и стреляет она без промаха. Кто же по своей воле откажется от такой красотки?



Качество: BDRip 1080p
Формат: MKV
Видео кодек: AVC
Аудио кодек: AC3 / DTS
Видео: 1920x800 (2.40:1), 23,976 fps, 9250 kbps, 0,251 bpp
Аудио №1: русский, AC3, 48 kHz, 5.1 ch, 448 kbps
Аудио №2: английский, DTS, 48 kHz, 5.1 ch, 1510 kbps


Код:

General
Unique ID                                : 243851092321362934176061928214235311303 (0xB7740316D81DE529AD9751D0DD91ECC7)
Complete name                            : E:\Миллион способов потерять голову (2014) BDRip 1080p.mkv
Format                                   : Matroska
Format version                           : Version 4 / Version 2
File size                                : 9.07 GiB
Duration                                 : 1h 55mn
Overall bit rate                         : 11.2 Mbps
Encoded date                             : UTC 2014-09-09 16:29:27
Writing application                      : mkvmerge v6.9.1 ('Blue Panther') 64bit built on Apr 18 2014 18:23:38
Writing library                          : libebml v1.3.0 + libmatroska v1.4.1
Attachment                               : Yes

Video
ID                                       : 1
Format                                   : AVC
Format/Info                              : Advanced Video Codec
Format profile                           : High@L4.1
Format settings, CABAC                   : Yes
Format settings, ReFrames                : 5 frames
Codec ID                                 : V_MPEG4/ISO/AVC
Duration                                 : 1h 55mn
Bit rate                                 : 9 250 Kbps
Width                                    : 1 920 pixels
Height                                   : 800 pixels
Display aspect ratio                     : 2.40:1
Frame rate                               : 23.976 fps
Color space                              : YUV
Chroma subsampling                       : 4:2:0
Bit depth                                : 8 bits
Scan type                                : Progressive
Bits/(Pixel*Frame)                       : 0.251
Stream size                              : 7.31 GiB (81%)
Writing library                          : x264 core 142 r2431 ac76440
Encoding settings                        : cabac=1 / ref=5 / deblock=1:-3:-3 / analyse=0x3:0x113 / me=umh / subme=10 / psy=1 / psy_rd=1.00:0.05 / mixed_ref=1 / me_range=32 / chroma_me=1 / trellis=2 / 8x8dct=1 / cqm=0 / deadzone=21,11 / fast_pskip=0 / chroma_qp_offset=-2 / threads=18 / lookahead_threads=1 / sliced_threads=0 / nr=0 / decimate=1 / interlaced=0 / bluray_compat=0 / constrained_intra=0 / bframes=5 / b_pyramid=2 / b_adapt=2 / b_bias=0 / direct=3 / weightb=1 / open_gop=0 / weightp=2 / keyint=250 / keyint_min=23 / scenecut=40 / intra_refresh=0 / rc=2pass / mbtree=0 / bitrate=9250 / ratetol=1.0 / qcomp=0.70 / qpmin=0 / qpmax=69 / qpstep=4 / cplxblur=20.0 / qblur=0.5 / ip_ratio=1.40 / pb_ratio=1.30 / aq=2:1.00
Language                                 : English
Default                                  : Yes
Forced                                   : No

Audio #1
ID                                       : 2
Format                                   : AC-3
Format/Info                              : Audio Coding 3
Mode extension                           : CM (complete main)
Codec ID                                 : A_AC3
Duration                                 : 1h 55mn
Bit rate mode                            : Constant
Bit rate                                 : 448 Kbps
Channel(s)                               : 6 channels
Channel positions                        : Front: L C R, Side: L R, LFE
Sampling rate                            : 48.0 KHz
Bit depth                                : 16 bits
Compression mode                         : Lossy
Stream size                              : 371 MiB (4%)
Language                                 : Russian
Default                                  : Yes
Forced                                   : Yes

Audio #2
ID                                       : 3
Format                                   : DTS
Format/Info                              : Digital Theater Systems
Codec ID                                 : A_DTS
Duration                                 : 1h 55mn
Bit rate mode                            : Constant
Bit rate                                 : 1 510 Kbps
Channel(s)                               : 6 channels
Channel positions                        : Front: L C R, Side: L R, LFE
Sampling rate                            : 48.0 KHz
Bit depth                                : 24 bits
Compression mode                         : Lossy
Delay relative to video                  : 11ms
Stream size                              : 1.22 GiB (13%)
Language                                 : English
Default                                  : No
Forced                                   : No

Text
ID                                       : 4
Format                                   : UTF-8
Codec ID                                 : S_TEXT/UTF8
Codec ID/Info                            : UTF-8 Plain Text
Title                                    : Полные
Language                                 : Russian
Default                                  : No
Forced                                   : No

Menu
00:00:00.000                             : en:00:00:00.000
00:03:02.140                             : en:00:03:02.140
00:08:25.797                             : en:00:08:25.797
00:12:26.996                             : en:00:12:26.996
00:18:24.895                             : en:00:18:24.895
00:23:06.176                             : en:00:23:06.176
00:28:13.442                             : en:00:28:13.442
00:35:10.442                             : en:00:35:10.442
00:39:33.705                             : en:00:39:33.705
00:44:59.822                             : en:00:44:59.822
00:50:14.470                             : en:00:50:14.470
00:58:14.533                             : en:00:58:14.533
01:05:44.941                             : en:01:05:44.941
01:13:28.070                             : en:01:13:28.070
01:17:55.129                             : en:01:17:55.129
01:23:44.561                             : en:01:23:44.561
01:27:24.656                             : en:01:27:24.656
01:35:27.889                             : en:01:35:27.889
01:42:52.374                             : en:01:42:52.374
01:49:42.951                             : en:01:49:42.951

pb.wtf



Скачать Миллион способов потерять голову через торрент http://i66.fastpic.ru/big/2014/0909/b7/760e3b5f2bbe95bf68d689b83ee8a7b7.png Скачать фильм Миллион способов потерять голову через торрент бесплантно в хорошем качестве Описание: Угораздило же влюбиться не в том месте и не в то время. Здесь хамят в ресторанах, о горячей воде слагают легенды, да и с ... 9.9 10 18
Info! Золотая раздача, скачанное не засчитывается.
Торрент: Зарегистрирован [2014-09-09 16:47] · скачан: 667 раз
Статус: √ проверено
Размер: 9.07 GB
Как cкачать? Как скачать Миллион способов потерять голову через торрент | qTorrent



Последний раз редактировалось: Seedtank (2014-09-09 21:34), всего редактировалось 2 раз(а)

28-11-2019 20:33  

Отключить всю рекламу на сайте

09-09-2014 16:58 Миллион способов потерять голову Скачать торрент  

как бы реальные 1080р с 5.1, но не на 42 гига
вставь туда. вставь сюда... головная боль. есть стандарт 1920х1080 вот его и прошу, по с 5.1. вот и всё. (p/s.- по возможности 15...20гиг)pb.wtf



    Дорогой пользователь! Огромная просьба, поблагодарите релизера, оцените раздачу и оставьте свои комментарий, если Вы скачали Миллион способов потерять голову через торрент бесплатно! Внесите свою лепту в развитие PiratBit!
    Комментировать посты могут только пользователи прошедшие не сложную регистрацию
    Показать сообщения:    

    Миллион способов потерять голову через торрент
    Скачать бесплатно Миллион способов потерять голову
    Миллион способов потерять голову скачать торрент
    Миллион способов потерять голову смотреть онлайн
    Cкачать фильм Миллион способов потерять голову бесплатно
    Миллион способов потерять голову скачать торрент в хорошем качестве
    Миллион способов потерять голову смотреть онлайн бесплатно в хорошем качестве


    Вы не можете начинать темы
    Вы не можете отвечать на сообщения
    Вы не можете редактировать свои сообщения
    Вы не можете удалять свои сообщения
    Вы не можете голосовать в опросах
    Вы не можете прикреплять файлы к сообщениям
    Вы можете скачивать файлы