Ссылка на приватное зеркало нашего сайта всего за 1$. Внимание количество ограничено!!!

2 сезон

iTunes

1 сезон

1

iTunes

iTunes

iTunes

1 сезон

RePack

30

ИГРА 18+

pack

ВАЖНО

!!Акция!!

Alien_RageХит недели

RePack

MK11
pack

Забери бонус

RePack

jed

!!Акция!!

Alien_Rage

RePack

fifa19

RePack

Assassins Creed: Odyssey

RePack

NEED FOR SPEED™ PAYBACK

4 сезон

9 сезон

Бесстыжие 9 сезон

Все сериалы

все сериалы на PB.wtf

RePack

FAR CRY 5
  

Пока не сыграл в ящик / The Bucket List (Роб Райнер / Rob Reiner) [2007, драма, комедия, приключения, BDRip 1080p, DUB, Лицензия] от R.G. HD-Films pb.wtf

Пока не сыграл в ящик через торрент pb.wtf

Размер: 11.19 GB | Добавлен: 6 лет 1 мес. назад | Торрент скачан:71 раз
Скачать  

09-09-2014 17:15 Пока не сыграл в ящик Скачать торрент  

Пока не сыграл в ящик / The Bucket List
«Оторвись напоследок»



Год выпуска: 2007
Страна: США
Жанр: драма, комедия, приключения
Продолжительность: 01:37:04
Перевод: Дублированный [Лицензия]
Субтитры: Русские (Полные)



Режиссер:
  • Роб Райнер / Rob Reiner
В ролях:
  • Джек Николсон, Морган Фриман, Шон Хейс, Беверли Тодд, Роб Морроу, Альфонсо Фриман, Роуэна Кинг, Эннтон Берри мл., Верда Бриджес, Дестини Браунридж, Брайан Коуплэнд, Йен Энтони Дэйл

Описание: Именно так решили два больных раком соседа по больничной палате, когда услышали свой приговор. Один из них вспыльчивый миллиардер, а второй эрудированный автомеханик. Они составляют список дел, которые необходимо сделать прежде, чем они сыграют в ящик, и отправляются в кругосветное путешествие, путешествие всей своей жизни.
Прыжки с парашютом? Посмотрим. Гонки на раритетных автомобилях? Сделано. Посмотреть на пирамиды? Отлично. Открыть радость жизни прежде, чем станет слишком поздно? Точно!



Качество: BDRip 1080p
Формат: MKV
Видео кодек: AVC
Аудио кодек: AC3
Видео: 1920x1080 (16:9), 23,976 fps, 15146 kbps, 0,305 bpp
Аудио №1: русский, AC3, 48 kHz, 5.1 ch, 384 kbps
Аудио №2: английский, AC3, 48 kHz, 5.1 ch, 640 kbps


Код:

Общее
Уникальный идентификатор                 : 221262032604411441306483877635912699616 (0xA67584754D3D098FA7789C48DD7D0EE0)
Полное имя                               : E:\Пока не сыграл в ящик (2007) BDRip 1080p.mkv
Формат                                   : Matroska
Версия формата                           : Version 4 / Version 2
Размер файла                             : 11,2 Гбайт
Продолжительность                        : 1 ч. 37 м.
Общий поток                              : 16,5 Мбит/сек
Дата кодирования                         : UTC 2014-09-09 17:16:39
Программа кодирования                    : mkvmerge v6.9.1 ('Blue Panther') 64bit built on Apr 18 2014 18:23:38
Библиотека кодирования                   : libebml v1.3.0 + libmatroska v1.4.1
Обложка                                  : Yes

Видео
Идентификатор                            : 1
Формат                                   : AVC
Формат/Информация                        : Advanced Video Codec
Профиль формата                          : High@L4.1
Параметр CABAC формата                   : Да
Параметр ReFrames формата                : 4 кадра
Идентификатор кодека                     : V_MPEG4/ISO/AVC
Продолжительность                        : 1 ч. 37 м.
Битрейт                                  : 15,1 Мбит/сек
Ширина                                   : 1920 пикселей
Высота                                   : 1080 пикселей
Соотношение сторон                       : 16:9
Режим частоты кадров                     : Постоянный
Частота кадров                           : 23,976 кадра/сек
Цветовое пространство                    : YUV
Субдискретизация насыщенности            : 4:2:0
Битовая глубина                          : 8 бит
Тип развёртки                            : Прогрессивная
Бит/(Пиксели*Кадры)                      : 0.305
Размер потока                            : 10,3 Гбайт (92%)
Библиотека кодирования                   : x264 core 128 r2216kMod 198a7ea
Настройки программы                      : cabac=1 / ref=4 / deblock=1:-3:-3 / analyse=0x3:0x133 / me=umh / subme=11 / psy=1 / fade_compensate=0.00 / psy_rd=1.00:0.00 / mixed_ref=1 / me_range=32 / chroma_me=1 / trellis=2 / 8x8dct=1 / cqm=0 / deadzone=21,11 / fast_pskip=0 / chroma_qp_offset=-2 / threads=6 / lookahead_threads=1 / sliced_threads=0 / nr=0 / decimate=1 / interlaced=0 / bluray_compat=0 / constrained_intra=0 / bframes=9 / b_pyramid=2 / b_adapt=2 / b_bias=0 / direct=3 / weightb=1 / open_gop=0 / weightp=2 / keyint=240 / keyint_min=23 / scenecut=40 / intra_refresh=0 / rc_lookahead=60 / rc=crf / mbtree=0 / crf=18.0000 / qcomp=0.70 / qpmin=0 / qpmax=69 / qpstep=4 / vbv_maxrate=50000 / vbv_bufsize=62500 / crf_max=0.0 / nal_hrd=none / ip_ratio=1.40 / pb_ratio=1.20 / aq=1:0.60
Язык                                     : English
Default                                  : Да
Forced                                   : Нет
Коэффициенты матрицы                     : BT.709

Аудио #1
Идентификатор                            : 2
Формат                                   : AC-3
Формат/Информация                        : Audio Coding 3
Расширение режима                        : CM (complete main)
Параметр Endianness формата              : Big
Идентификатор кодека                     : A_AC3
Продолжительность                        : 1 ч. 37 м.
Вид битрейта                             : Постоянный
Битрейт                                  : 384 Кбит/сек
Каналы                                   : 6 каналов
Расположение каналов                     : Front: L C R, Side: L R, LFE
Частота                                  : 48,0 КГц
Битовая глубина                          : 16 бит
Метод сжатия                             : С потерями
Размер потока                            : 267 Мбайт (2%)
Язык                                     : Russian
Default                                  : Да
Forced                                   : Да

Аудио #2
Идентификатор                            : 3
Формат                                   : AC-3
Формат/Информация                        : Audio Coding 3
Расширение режима                        : CM (complete main)
Параметр Endianness формата              : Big
Идентификатор кодека                     : A_AC3
Продолжительность                        : 1 ч. 37 м.
Вид битрейта                             : Постоянный
Битрейт                                  : 640 Кбит/сек
Каналы                                   : 6 каналов
Расположение каналов                     : Front: L C R, Side: L R, LFE
Частота                                  : 48,0 КГц
Битовая глубина                          : 16 бит
Метод сжатия                             : С потерями
Размер потока                            : 444 Мбайт (4%)
Язык                                     : English
Default                                  : Нет
Forced                                   : Нет

Текст
Идентификатор                            : 4
Формат                                   : UTF-8
Идентификатор кодека                     : S_TEXT/UTF8
Идентификатор кодека/Информация          : UTF-8 Plain Text
Заголовок                                : Полные
Язык                                     : Russian
Default                                  : Нет
Forced                                   : Нет

Меню
00:00:00.000                             : en:1. About Edward
00:01:30.090                             : en:2. Two Ailing Men
00:06:09.703                             : en:3. Roommates
00:12:38.424                             : en:4. Coffee Origins
00:17:06.359                             : en:5. Life Choices
00:23:10.723                             : en:6. Getting Familiar
00:29:30.936                             : en:7. Bucket List
00:35:30.128                             : en:8. Time for Myself
00:38:45.490                             : en:9. Skydiving
00:42:03.688                             : en:10. Need for Speed
00:45:58.756                             : en:11. In-Flight Faith
00:49:39.476                             : en:12. Little Accident
00:53:04.681                             : en:13. Lost Along the Way
00:57:50.133                             : en:14. Two Questions
01:03:42.652                             : en:15. Ashes in a Can
01:06:43.666                             : en:16. Carter's Mountain
01:09:18.988                             : en:17. Temptation
01:14:11.113                             : en:18. I'm Not Everyone
01:16:35.925                             : en:19. Homecomings
01:20:54.349                             : en:20. Word with the Owner
01:23:23.665                             : en:21. Cats Beat Me to It
01:26:55.710                             : en:22. Find the Joy
01:32:21.536                             : en:23. End Credits

pb.wtf



Скачать Пока не сыграл в ящик через торрент http://i66.fastpic.ru/big/2014/0909/b7/760e3b5f2bbe95bf68d689b83ee8a7b7.png Скачать фильм Пока не сыграл в ящик через торрент бесплантно в хорошем качестве Описание: Именно так решили два больных раком соседа по больничной палате, когда услышали свой приговор. Один из них вспыльчивый ... 9.9 10 13
Info! Золотая раздача, скачанное не засчитывается.
Торрент: Зарегистрирован [2014-09-09 17:50] · скачан: 71 раз
Статус: √ проверено
Размер: 11.19 GB
Как cкачать? Как скачать Пока не сыграл в ящик через торрент | qTorrent

% Раздел Тема Автор DL S | L
Фильмы 2006-2008 [ 1.46 GB ] Пока не сыграл в ящик / The Bucket List [2007 HDRip-AVC] DUB / от R.G. nICE Films Demonessa Скачать
1 | 0


Последний раз редактировалось: Seedtank (2014-09-10 11:10), всего редактировалось 2 раз(а)

28-11-2019 20:33  

Отключить всю рекламу на сайте

09-09-2014 19:52 Пока не сыграл в ящик Скачать торрент  

Потрясающий фильм!!!pb.wtf



09-03-2016 10:22 Пока не сыграл в ящик Скачать торрент  

Раздайте пожалуйста)pb.wtf



    Дорогой пользователь! Огромная просьба, поблагодарите релизера, оцените раздачу и оставьте свои комментарий, если Вы скачали Пока не сыграл в ящик через торрент бесплатно! Внесите свою лепту в развитие PiratBit!
    Комментировать посты могут только пользователи прошедшие не сложную регистрацию
    Показать сообщения:    

    Пока не сыграл в ящик через торрент
    Скачать бесплатно Пока не сыграл в ящик
    Пока не сыграл в ящик скачать торрент
    Пока не сыграл в ящик смотреть онлайн
    Cкачать фильм Пока не сыграл в ящик бесплатно
    Пока не сыграл в ящик скачать торрент в хорошем качестве
    Пока не сыграл в ящик смотреть онлайн бесплатно в хорошем качестве


    Вы не можете начинать темы
    Вы не можете отвечать на сообщения
    Вы не можете редактировать свои сообщения
    Вы не можете удалять свои сообщения
    Вы не можете голосовать в опросах
    Вы не можете прикреплять файлы к сообщениям
    Вы можете скачивать файлы