Ссылка на приватное зеркало нашего сайта всего за 1$. Внимание количество ограничено!!!

2 сезон

iTunes

1 сезон

1

iTunes

iTunes

iTunes

1 сезон

RePack

30

ИГРА 18+

pack

ВАЖНО

!!Акция!!

Alien_RageХит недели

RePack

MK11
pack

Забери бонус

RePack

jed

!!Акция!!

Alien_Rage

RePack

fifa19

RePack

Assassins Creed: Odyssey

RePack

NEED FOR SPEED™ PAYBACK

4 сезон

9 сезон

Бесстыжие 9 сезон

Все сериалы

все сериалы на PB.wtf

RePack

FAR CRY 5
  

Пластик / Plastic (Джулиан Джилби / Julian Gilbey) [ 2014 , Великобритания , боевик, драма, комедия , BDRip,720p ] DUB - Лицензия pb.wtf

Пластик через торрент pb.wtf

Размер: 4.64 GB | Добавлен: 6 лет 1 мес. назад | Торрент скачан:187 раз
Скачать  

09-09-2014 22:41 Пластик Скачать торрент  

ПластикPlastic«Всё до пенни»
Страна: Великобритания
Жанр: боевик, драма, комедия, криминал
Год выпуска: 2014
Продолжительность: 01:41:56
Перевод: Профессиональный (полное дублирование)Лицензия
Субтитры: английские,
Режиссер: Джулиан Джилби / Julian Gilbey
В ролях:


Эдвард Спелирс (Sam), Уилл Поултер (Fordy), Элфи Оуэн-Аллен (Yatesey), Себастьян Де Соуза (Rafa), Эмма Ригби (Frankie), Томас Кречман (Marcel), Грэм МакТавиш (Steve Dawson), Мем Ферда (Tariq), Майкл Биспинг (Kasper), Чарли Палмер Меркелл (Ralph), Терри Стоун (Clarkson), Малез Джоу (Beth)

Дублёры: Дмитрий Поляновский (Sam), Илья Хвостиков (Fordy), Михаил Тихонов (Yatesey), Николай Быстров (Rafa), Мария Иващенко (Frankie), Илья Исаев (Marcel), Владимир Антоник (Steve Dawson), Артем Лысков (Ralph), Ольга Иванова (Beth), Прохор Чеховской (Dion), Пётр Иващенко (Mr. X), Константин Юдаев (Danny)
Описание: Фильм основан на реальной истории. Банде друзей удалось проникнуть в одну из самых больших в мире компаний, которая работает с кредитными картами. Им удается провернуть одну из самых дерзких краж в британской истории.


MPAA: R - Лицам до 17 лет обязательно присутствие взрослого
Качество: BDRip 720p
Контейнер: MKV
Видео кодек: AVC
Аудио кодек: AC3 / DTS

Видео: AVC, 1280x536 (2.40:1), 5363 kbps, 24 fps, 0,326 bpp
Аудио №1: русский / AC3 / 5.1 / 48 kHz / 384 kbps / 16 bit ||
Аудио №2: английский / DTS / 5.1 / 48 kHz / 755 kbps / 24 bit
Навигация по главам: есть
General
Unique ID : 189607934921809408113227602700519417248 (0x8EA528F2DF40E9EAB2507A56E58525A0)
Complete name : C:\Users\VALTER\Desktop\Новая папка (6)\Plastic.2014.D.BDRip.720p.mkv
Format : Matroska
Format version : Version 4 / Version 2
File size : 4.64 GiB
Duration : 1h 41mn
Overall bit rate : 6 515 Kbps
Encoded date : UTC 2014-09-09 17:58:14
Writing application : mkvmerge v6.1.0 ('Old Devil') built on Mar 4 2013 09:10:42
Writing library : libebml v1.3.0 + libmatroska v1.4.0
DURATION : 01:33:48.333000000
NUMBER_OF_FRAMES : 1345
NUMBER_OF_BYTES : 46354
_STATISTICS_WRITING_APP : mkvmerge v7.0.0 ('Where We Going') 32bit built on Jun 9 2014 15:08:34
_STATISTICS_WRITING_DATE_UTC : 2014-09-09 13:11:15
_STATISTICS_TAGS : BPS DURATION NUMBER_OF_FRAMES NUMBER_OF_BYTES

Video
ID : 1
Format : AVC
Format/Info : Advanced Video Codec
Format profile : High@L4.1
Format settings, CABAC : Yes
Format settings, ReFrames : 5 frames
Codec ID : V_MPEG4/ISO/AVC
Duration : 1h 41mn
Bit rate : 5 363 Kbps
Width : 1 280 pixels
Height : 536 pixels
Display aspect ratio : 2.40:1
Frame rate : 24.000 fps
Color space : YUV
Chroma subsampling : 4:2:0
Bit depth : 8 bits
Scan type : Progressive
Bits/(Pixel*Frame) : 0.326
Stream size : 3.74 GiB (81%)
Writing library : x264 core 142 r2453 ea0ca51
Encoding settings : cabac=1 / ref=5 / deblock=1:0:0 / analyse=0x3:0x133 / me=umh / subme=8 / psy=1 / psy_rd=1.00:0.00 / mixed_ref=1 / me_range=16 / chroma_me=1 / trellis=1 / 8x8dct=1 / cqm=0 / deadzone=21,11 / fast_pskip=0 / chroma_qp_offset=-2 / threads=12 / lookahead_threads=2 / sliced_threads=0 / nr=0 / decimate=1 / interlaced=0 / bluray_compat=0 / constrained_intra=0 / bframes=3 / b_pyramid=2 / b_adapt=2 / b_bias=0 / direct=3 / weightb=1 / open_gop=0 / weightp=2 / keyint=250 / keyint_min=24 / scenecut=40 / intra_refresh=0 / rc_lookahead=50 / rc=2pass / mbtree=1 / bitrate=5363 / ratetol=1.0 / qcomp=0.60 / qpmin=0 / qpmax=69 / qpstep=4 / cplxblur=20.0 / qblur=0.5 / ip_ratio=1.40 / aq=1:1.00
Language : English
Default : Yes
Forced : No
DURATION : 01:41:56.667000000
NUMBER_OF_FRAMES : 146800
NUMBER_OF_BYTES : 4098832565
_STATISTICS_WRITING_APP : mkvmerge v7.0.0 ('Where We Going') 32bit built on Jun 9 2014 15:08:34
_STATISTICS_WRITING_DATE_UTC : 2014-09-09 13:11:15
_STATISTICS_TAGS : BPS DURATION NUMBER_OF_FRAMES NUMBER_OF_BYTES

Audio #1
ID : 2
Format : AC-3
Format/Info : Audio Coding 3
Mode extension : CM (complete main)
Codec ID : A_AC3
Duration : 1h 41mn
Bit rate mode : Constant
Bit rate : 384 Kbps
Channel(s) : 6 channels
Channel positions : Front: L C R, Side: L R, LFE
Sampling rate : 48.0 KHz
Bit depth : 16 bits
Compression mode : Lossy
Stream size : 280 MiB (6%)
Language : Russian
Default : Yes
Forced : No

Audio #2
ID : 3
Format : DTS
Format/Info : Digital Theater Systems
Codec ID : A_DTS
Duration : 1h 41mn
Bit rate mode : Constant
Bit rate : 755 Kbps
Channel(s) : 6 channels
Channel positions : Front: L C R, Side: L R, LFE
Sampling rate : 48.0 KHz
Bit depth : 24 bits
Compression mode : Lossy
Stream size : 550 MiB (12%)
Language : English
Default : No
Forced : No

Text
ID : 4
Format : UTF-8
Codec ID : S_TEXT/UTF8
Codec ID/Info : UTF-8 Plain Text
Language : English
Default : No
Forced : No
pb.wtf



Скачать Пластик через торрент http://i67.fastpic.ru/big/2014/0909/b4/7b11fae0374e1744c5a565fa98fecdb4.png Скачать фильм Пластик через торрент бесплантно в хорошем качестве Описание: Фильм основан на реальной истории. Банде друзей удалось проникнуть в одну из самых больших в мире компаний, которая работает с ... 7.8 10 6
Info! Серебряная раздача, засчитывается только 50% скачанного.
Торрент: Зарегистрирован [2014-09-09 22:41] · скачан: 187 раз
Статус: √ проверено
Размер: 4.64 GB
Как cкачать? Как скачать Пластик через торрент | qTorrent

% Раздел Тема Автор DL S | L
Фильмы 2014 [DVDrip, WEB-DLRip, HDrip] [ 2.18 GB ] Пластик / Plastic [2014 BDRip-AVC] DUB potroks Скачать
1 | 0

28-11-2019 20:33  

Отключить всю рекламу на сайте

    Дорогой пользователь! Огромная просьба, поблагодарите релизера, оцените раздачу и оставьте свои комментарий, если Вы скачали Пластик через торрент бесплатно! Внесите свою лепту в развитие PiratBit!
    Комментировать посты могут только пользователи прошедшие не сложную регистрацию
    Показать сообщения:    

    Пластик через торрент
    Скачать бесплатно Пластик
    Пластик скачать торрент
    Пластик смотреть онлайн
    Cкачать фильм Пластик бесплатно
    Пластик скачать торрент в хорошем качестве
    Пластик смотреть онлайн бесплатно в хорошем качестве


    Вы не можете начинать темы
    Вы не можете отвечать на сообщения
    Вы не можете редактировать свои сообщения
    Вы не можете удалять свои сообщения
    Вы не можете голосовать в опросах
    Вы не можете прикреплять файлы к сообщениям
    Вы можете скачивать файлы