Ссылка на приватное зеркало нашего сайта всего за 1$. Внимание количество ограничено!!!

2 сезон

iTunes

1 сезон

1

2 сезон

2 сезон

iTunes

1 сезон

RePack

30

Ultimate

ВАЖНО

ИГРА 18+

pack

RePack

MK11
pack

Забери бонус

RePack

jed

!!Акция!!

Alien_Rage

RePack

fifa19

RePack

Assassins Creed: Odyssey

RePack

NEED FOR SPEED™ PAYBACK

4 сезон

9 сезон

Бесстыжие 9 сезон

Все сериалы

все сериалы на PB.wtf

RePack

FAR CRY 5
  

Опасная игра / Real Playing Game (Тино Наварро, David Rebordão) [2013, фантастика, боевик, приключения, BDRip 720p, VO [R.A.I.M.] от R.G. HD-Films pb.wtf

Опасная игра через торрент pb.wtf

Размер: 3.61 GB | Добавлен: 6 лет 2 мес. назад | Торрент скачан:174 раза
Скачать  

10-09-2014 09:52 Опасная игра Скачать торрент  

Опасная игра / Real Playing Game


Год выпуска: 2013
Страна: Португалия
Жанр:фантастика, боевик, приключения
Продолжительность:01:42:23
Перевод:Любительский (одноголосый) [R.A.I.M.]
Режиссер:Тино Наварро, David Rebordão

  • В ролях:
    Киэн Бэрри (Young Steve Battier), Аликс Вилтон Риган (Young Alice), Ник Хэлилай (Young Boris), Педру Гранжер (Young Carlos), Кристофер Го (Young Li), Женевьева Каповилла (Young Maria), Дафна Фернандес (Young Kate), Рубен-Генри Биггс (Young Okot), Клаудиа Сванн (Young Yasmin), Дебора Монтейру (Young Jorge), Рутгер Хауэр (Steve Battier), Крис Ташима (Mr. Chan)


  • Описание:
    В не слишком далеком будущем, престарелый мультимиллионер Стив Батьер, который, к тому же, неизлечимо болен, принял предложение компании RPG, которое состояло в том, что группа клиентов получает возможность «обрести молодое тело». В течении 10 часов 10 миллионеров со всего мира окажутся снова молодыми и здоровыми. Но у этой «игры» есть вполне реальные правила - каждый час кто-то из них может умереть. В возрасте 23 лет, Стив готов пойти на все, чтобы сохранить эту вечную молодость...

  • Мировая премьера:29 августа 2013

    Качество: BDRip 720p
    Формат:MKV
    Видео кодек: AVC
    Аудио кодек:AC3
    Видео: AVC, 1280x536 (2.40:1), 4595 kbps, 24 fps, 0,279 bpp
    Аудио: русский / AC3 / 5.1 / 48 kHz / 448 kbps / 16 bit ||
    Навигация по главам: есть


    Код:

    General
    Unique ID                                : 221414815217028364364804104292619968516 (0xA692F138FBB0F4A8A305B2BE95AAE004)
    Complete name                            : D:\Торенты\Раздачи\Опасная игра_720p_2013_Release for Piratbit.net_R.G. HD-Films.mkv
    Format                                   : Matroska
    Format version                           : Version 4 / Version 2
    File size                                : 3.61 GiB
    Duration                                 : 1h 42mn
    Overall bit rate                         : 5 044 Kbps
    Movie name                               : _Release for Piratbit.net_R.G. HD-Films
    Encoded date                             : UTC 2014-09-10 09:32:26
    Writing application                      : mkvmerge v7.1.0 ('Good Love') 64bit built on Jul 27 2014 13:06:55
    Writing library                          : libebml v1.3.0 + libmatroska v1.4.1
    DURATION                                 : 01:42:23.040000000
    NUMBER_OF_FRAMES                         : 191970
    NUMBER_OF_BYTES                          : 344010240
    _STATISTICS_WRITING_APP                  : mkvmerge v7.1.0 ('Good Love') 64bit built on Jul 27 2014 13:06:55
    _STATISTICS_WRITING_DATE_UTC             : 2014-09-10 09:32:26
    _STATISTICS_TAGS                         : BPS DURATION NUMBER_OF_FRAMES NUMBER_OF_BYTES
    Attachment                               : Yes

    Video
    ID                                       : 1
    Format                                   : AVC
    Format/Info                              : Advanced Video Codec
    Format profile                           : High@L4.1
    Format settings, CABAC                   : Yes
    Format settings, ReFrames                : 5 frames
    Codec ID                                 : V_MPEG4/ISO/AVC
    Duration                                 : 1h 42mn
    Bit rate                                 : 4 595 Kbps
    Width                                    : 1 280 pixels
    Height                                   : 536 pixels
    Display aspect ratio                     : 2.40:1
    Frame rate                               : 24.000 fps
    Color space                              : YUV
    Chroma subsampling                       : 4:2:0
    Bit depth                                : 8 bits
    Scan type                                : Progressive
    Bits/(Pixel*Frame)                       : 0.279
    Stream size                              : 3.22 GiB (89%)
    Title                                    : _Release for Piratbit.net_R.G. HD-Films
    Writing library                          : x264 core 142 r2453 ea0ca51
    Encoding settings                        : cabac=1 / ref=5 / deblock=1:0:0 / analyse=0x3:0x133 / me=umh / subme=8 / psy=1 / psy_rd=1.00:0.00 / mixed_ref=1 / me_range=16 / chroma_me=1 / trellis=1 / 8x8dct=1 / cqm=0 / deadzone=21,11 / fast_pskip=0 / chroma_qp_offset=-2 / threads=12 / lookahead_threads=2 / sliced_threads=0 / nr=0 / decimate=1 / interlaced=0 / bluray_compat=0 / constrained_intra=0 / bframes=3 / b_pyramid=2 / b_adapt=2 / b_bias=0 / direct=3 / weightb=1 / open_gop=0 / weightp=2 / keyint=250 / keyint_min=24 / scenecut=40 / intra_refresh=0 / rc_lookahead=50 / rc=2pass / mbtree=1 / bitrate=4595 / ratetol=1.0 / qcomp=0.60 / qpmin=0 / qpmax=69 / qpstep=4 / cplxblur=20.0 / qblur=0.5 / ip_ratio=1.40 / aq=1:1.00
    Language                                 : Russian
    Default                                  : Yes
    Forced                                   : No
    DURATION                                 : 01:42:23.084000000
    NUMBER_OF_FRAMES                         : 147434
    NUMBER_OF_BYTES                          : 3528150615
    _STATISTICS_WRITING_APP                  : mkvmerge v7.1.0 ('Good Love') 64bit built on Jul 27 2014 13:06:55
    _STATISTICS_WRITING_DATE_UTC             : 2014-09-10 09:32:26
    _STATISTICS_TAGS                         : BPS DURATION NUMBER_OF_FRAMES NUMBER_OF_BYTES

    Audio
    ID                                       : 2
    Format                                   : AC-3
    Format/Info                              : Audio Coding 3
    Mode extension                           : CM (complete main)
    Codec ID                                 : A_AC3
    Duration                                 : 1h 42mn
    Bit rate mode                            : Constant
    Bit rate                                 : 448 Kbps
    Channel(s)                               : 6 channels
    Channel positions                        : Front: L C R, Side: L R, LFE
    Sampling rate                            : 48.0 KHz
    Bit depth                                : 16 bits
    Compression mode                         : Lossy
    Stream size                              : 328 MiB (9%)
    Title                                    : Любительский (одноголосый) [R.A.I.M]
    Language                                 : Russian
    Default                                  : Yes
    Forced                                   : Yes

    Menu
    00:00:00.000                             : en:00:00:00.000
    00:10:43.917                             : en:00:10:43.917
    00:20:27.125                             : en:00:20:27.125
    00:27:12.125                             : en:00:27:12.125
    00:36:32.542                             : en:00:36:32.542
    00:45:47.708                             : en:00:45:47.708
    00:55:19.000                             : en:00:55:19.000
    01:03:22.750                             : en:01:03:22.750
    01:10:42.750                             : en:01:10:42.750
    01:19:02.292                             : en:01:19:02.292
    01:27:56.792                             : en:01:27:56.792
    01:38:48.833                             : en:01:38:48.833

    Скриншоты:

    Срочно! Нужна помощь!

    Релиз подготовлен специально для Piratbit.net. by Raven
    pb.wtf



  • Скачать Опасная игра через торрент http://pic.kartinco.top/images/6/stazu.jpg Скачать фильм Опасная игра через торрент бесплантно в хорошем качестве Описание:В не слишком далеком будущем, престарелый мультимиллионер Стив Батьер, который, к тому же, неизлечимо болен, принял предложение ... 9.6 10 9
    Info! Золотая раздача, скачанное не засчитывается.
    Торрент: Зарегистрирован [2014-09-10 09:52] · скачан: 174 раз
    Статус: T временная
    Размер: 3.61 GB
    Как cкачать? Как скачать Опасная игра через торрент | qTorrent

    28-11-2019 20:33  

    Отключить всю рекламу на сайте

    10-09-2014 14:37 Опасная игра Скачать торрент  

    Крутецкий фильм!!! Советую!pb.wtf



    10-09-2014 15:25 Опасная игра Скачать торрент  

    iPod11111 писал(а):

    Крутецкий фильм!!! Советую!

    Уболтал чертяка.pb.wtf



    10-09-2014 16:28 Опасная игра Скачать торрент  

    iPod11111 писал(а):

    Крутецкий фильм!!! Советую!

    уговорил, черт полосатый!!!pb.wtf



    11-09-2014 04:03 Опасная игра Скачать торрент  

    iPod11111 писал(а):

    Крутецкий фильм!!! Советую!

    Да, пожалуй и меня уговорил.pb.wtf



      Дорогой пользователь! Огромная просьба, поблагодарите релизера, оцените раздачу и оставьте свои комментарий, если Вы скачали Опасная игра через торрент бесплатно! Внесите свою лепту в развитие PiratBit!
      Комментировать посты могут только пользователи прошедшие не сложную регистрацию
      Показать сообщения:    

      Опасная игра через торрент
      Скачать бесплатно Опасная игра
      Опасная игра скачать торрент
      Опасная игра смотреть онлайн
      Cкачать фильм Опасная игра бесплатно
      Опасная игра скачать торрент в хорошем качестве
      Опасная игра смотреть онлайн бесплатно в хорошем качестве


      Вы не можете начинать темы
      Вы не можете отвечать на сообщения
      Вы не можете редактировать свои сообщения
      Вы не можете удалять свои сообщения
      Вы не можете голосовать в опросах
      Вы не можете прикреплять файлы к сообщениям
      Вы можете скачивать файлы