Ссылка на приватное зеркало нашего сайта всего за 1$. Внимание количество ограничено!!!

2 сезон

iTunes

1 сезон

1

2 сезон

2 сезон

iTunes

1 сезон

RePack

30

Ultimate

ВАЖНО

ИГРА 18+

pack

RePack

MK11
pack

Забери бонус

RePack

jed

!!Акция!!

Alien_Rage

RePack

fifa19

RePack

Assassins Creed: Odyssey

RePack

NEED FOR SPEED™ PAYBACK

4 сезон

9 сезон

Бесстыжие 9 сезон

Все сериалы

все сериалы на PB.wtf

RePack

FAR CRY 5
  

Чёрная дыра / Pitch Black (Дэвид Туи / David Twohy) [1999, США, фантастика, боевик, триллер, BD Remux,Дубляж - [Лицензия] pb.wtf

Чёрная дыра через торрент pb.wtf

Размер: 25.76 GB | Добавлен: 6 лет 2 мес. назад | Торрент скачан:4 раза
Скачать  

10-09-2014 20:05 Чёрная дыра Скачать торрент  

Чёрная дыра / Pitch Black

Год выпуска: 1999
Страна:США
Жанр: фантастика, боевик, триллер
Продолжительность: 01:51:55
Перевод: Дубляж - [Лицензия]
Субтитры: русские (Full), русские (Forced), английские,
Режиссер: Дэвид Туи / David Twohy
В ролях:
Вин Дизель (Richard B. Riddick), Рада Митчелл (Carolyn Fry), Коул Хаузер (William J. Johns), Кит Дэвид (Abu «Imam» al-Walid), Льюис Фиц-Джералд (Paris P. Ogilvie), Клаудия Блэк (Sharon «Shazza» Montgomery), Риана Гриффит (Jack / Jackie), Джон Мур (John «Zeke» Ezekiel), Саймон Бурк (Greg Owens), Лес Чэнтери (Suleiman), Сэм Сари (Hassan), Фирэсс Дирани (Ali)

Описание:
В недалеком будущем космический корабль терпит бедствие, в результате чего совершает вынужденную посадку на отдаленной планете. Но в результате такой посадки погибает командир корабля, часть команды и большинство пассажиров.
Оставшиеся в живых оказываются одни на жуткой и безжизненной планете. Первое, что бросается в глаза - это то, что планета имеет три солнца, из-за чего все живое погибает в этой пустыне. Но как только планета погружается в темноту, появляются какие-то странные существа...
Рейтинг:


Качество: BD Remux
Формат: MKV
Видео кодек: VC-1
Аудио кодек:AC3, DTS, DTS-HD
Видео: VC-1, 1920x1080 (16:9), 24958 kbps, 23,976 fps, 0,502 bpp
Аудио №1: русский / DTS / 5.1 / 48 kHz / 755 kbps / 24 bit [Дубляж]
Аудио №2: русский / AC3 / 5.1 / 48 kHz / 640 kbps / 16 bit [MVO]
Аудио №3: русский / DTS / 5.1 / 48 kHz / 1510 kbps / 24 bit [Goblin]
Аудио №4: русский / DTS / 5.1 / 48 kHz / 755 kbps / 24 bit [Givov]
Аудио №5: английский / DTS-HD / 5.1 / 48 kHz / 3291 kbps / 24 bit (Core: 5.1 / 48 kHz / 1510 kbps / 24 bit) [Оригинал]
Аудио №6: английский / AC3 / 2.0 / 48 kHz / 192 kbps / 16 bit [David Twohy, Tom Engelman and Peter Chiang]
Аудио №7: английский / AC3 / 2.0 / 48 kHz / 192 kbps / 16 bit [David Twohy, Tom Engelman and Peter Chiang]
Навигация по главам: есть

Код:

General
Unique ID                                : 241175410893735115327518723709769433297 (0xB570B1CF465FF4D5A986059C12FD40D1)
Complete name                            : H:\Futuron\Кино\Pitch.Black.BDRemux.VC1.1080p.mkv
Format                                   : Matroska
Format version                           : Version 2
File size                                : 25.8 GiB
Duration                                 : 1h 51mn
Overall bit rate mode                    : Variable
Overall bit rate                         : 32.9 Mbps
Encoded date                             : UTC 2010-02-25 13:48:20
Writing application                      : mkvmerge v2.9.9 ('Tutu') built on Nov 25 2009 21:13:32
Writing library                          : libebml v0.7.9 + libmatroska v0.8.1

Video
ID                                       : 1
Format                                   : VC-1
Format profile                           : AP@L3
Codec ID                                 : WVC1
Codec ID/Hint                            : Microsoft
Duration                                 : 1h 51mn
Bit rate                                 : 25.0 Mbps
Width                                    : 1 920 pixels
Height                                   : 1 080 pixels
Display aspect ratio                     : 16:9
Frame rate                               : 23.976 fps
Chroma subsampling                       : 4:2:0
Bit depth                                : 8 bits
Scan type                                : Progressive
Compression mode                         : Lossy
Bits/(Pixel*Frame)                       : 0.502
Stream size                              : 19.5 GiB (76%)
Default                                  : Yes
Forced                                   : No

Audio #1
ID                                       : 2
Format                                   : DTS
Format/Info                              : Digital Theater Systems
Codec ID                                 : A_DTS
Duration                                 : 1h 51mn
Bit rate mode                            : Constant
Bit rate                                 : 755 Kbps
Channel(s)                               : 6 channels
Channel positions                        : Front: L C R, Side: L R, LFE
Sampling rate                            : 48.0 KHz
Bit depth                                : 24 bits
Compression mode                         : Lossy
Stream size                              : 604 MiB (2%)
Title                                    : Dubbed
Language                                 : Russian
Default                                  : Yes
Forced                                   : No

Audio #2
ID                                       : 3
Format                                   : AC-3
Format/Info                              : Audio Coding 3
Mode extension                           : CM (complete main)
Codec ID                                 : A_AC3
Duration                                 : 1h 51mn
Bit rate mode                            : Constant
Bit rate                                 : 640 Kbps
Channel(s)                               : 6 channels
Channel positions                        : Front: L C R, Side: L R, LFE
Sampling rate                            : 48.0 KHz
Bit depth                                : 16 bits
Compression mode                         : Lossy
Stream size                              : 512 MiB (2%)
Title                                    : MVO
Language                                 : Russian
Default                                  : No
Forced                                   : No

Audio #3
ID                                       : 4
Format                                   : DTS
Format/Info                              : Digital Theater Systems
Codec ID                                 : A_DTS
Duration                                 : 1h 51mn
Bit rate mode                            : Constant
Bit rate                                 : 1 510 Kbps
Channel(s)                               : 6 channels
Channel positions                        : Front: L C R, Side: L R, LFE
Sampling rate                            : 48.0 KHz
Bit depth                                : 24 bits
Compression mode                         : Lossy
Stream size                              : 1.18 GiB (5%)
Title                                    : Goblin
Language                                 : Russian
Default                                  : No
Forced                                   : No

Audio #4
ID                                       : 5
Format                                   : DTS
Format/Info                              : Digital Theater Systems
Codec ID                                 : A_DTS
Duration                                 : 1h 51mn
Bit rate mode                            : Constant
Bit rate                                 : 755 Kbps
Channel(s)                               : 6 channels
Channel positions                        : Front: L C R, Side: L R, LFE
Sampling rate                            : 48.0 KHz
Bit depth                                : 24 bits
Compression mode                         : Lossy
Stream size                              : 604 MiB (2%)
Title                                    : Givov
Language                                 : Russian
Default                                  : No
Forced                                   : No

Audio #5
ID                                       : 6
Format                                   : DTS
Format/Info                              : Digital Theater Systems
Format profile                           : MA / Core
Codec ID                                 : A_DTS
Duration                                 : 1h 51mn
Bit rate mode                            : Variable
Bit rate                                 : 3 292 Kbps / 1 510 Kbps
Channel(s)                               : 6 channels
Channel positions                        : Front: L C R, Side: L R, LFE
Sampling rate                            : 48.0 KHz
Bit depth                                : 24 bits
Compression mode                         : Lossless / Lossy
Language                                 : English
Default                                  : No
Forced                                   : No

Audio #6
ID                                       : 7
Format                                   : AC-3
Format/Info                              : Audio Coding 3
Format profile                           : Dolby Digital
Mode extension                           : CM (complete main)
Codec ID                                 : A_AC3
Duration                                 : 1h 51mn
Bit rate mode                            : Constant
Bit rate                                 : 192 Kbps
Channel(s)                               : 2 channels
Channel positions                        : Front: L R
Sampling rate                            : 48.0 KHz
Bit depth                                : 16 bits
Compression mode                         : Lossy
Stream size                              : 154 MiB (1%)
Title                                    : Commentaries 1 (David Twohy, Vin Diesel and Cole Hauser)
Language                                 : English
Default                                  : No
Forced                                   : No

Audio #7
ID                                       : 8
Format                                   : AC-3
Format/Info                              : Audio Coding 3
Format profile                           : Dolby Digital
Mode extension                           : CM (complete main)
Codec ID                                 : A_AC3
Duration                                 : 1h 51mn
Bit rate mode                            : Constant
Bit rate                                 : 192 Kbps
Channel(s)                               : 2 channels
Channel positions                        : Front: L R
Sampling rate                            : 48.0 KHz
Bit depth                                : 16 bits
Compression mode                         : Lossy
Stream size                              : 154 MiB (1%)
Title                                    : Commentaries 2 (David Twohy, Tom Engelman and Peter Chiang)
Language                                 : English
Default                                  : No
Forced                                   : No

Text #1
ID                                       : 9
Format                                   : UTF-8
Codec ID                                 : S_TEXT/UTF8
Codec ID/Info                            : UTF-8 Plain Text
Title                                    : Full
Language                                 : Russian
Default                                  : Yes
Forced                                   : No

Text #2
ID                                       : 10
Format                                   : UTF-8
Codec ID                                 : S_TEXT/UTF8
Codec ID/Info                            : UTF-8 Plain Text
Title                                    : Forced
Language                                 : Russian
Default                                  : No
Forced                                   : No

Text #3
ID                                       : 11
Format                                   : UTF-8
Codec ID                                 : S_TEXT/UTF8
Codec ID/Info                            : UTF-8 Plain Text
Language                                 : English
Default                                  : No
Forced                                   : No

Menu
00:00:00.000                             : :00:00:00.000
00:02:56.885                             : :00:02:56.885
00:08:28.007                             : :00:08:28.007
00:17:05.858                             : :00:17:05.858
00:27:13.631                             : :00:27:13.631
00:32:27.987                             : :00:32:27.987
00:36:49.915                             : :00:36:49.915
00:46:49.389                             : :00:46:49.389
00:56:08.907                             : :00:56:08.907
01:02:45.678                             : :01:02:45.678
01:08:07.750                             : :01:08:07.750
01:14:22.291                             : :01:14:22.291
01:20:00.503                             : :01:20:00.503
01:25:38.800                             : :01:25:38.800
01:30:14.909                             : :01:30:14.909
01:38:59.975                             : :01:38:59.975
01:43:37.878                             : :01:43:37.878
01:46:13.867                             : :01:46:13.867

pb.wtf



Скачать Чёрная дыра через торрент http://pic.kartinco.top/images/7/h2j5z.jpg Скачать фильм Чёрная дыра через торрент бесплантно в хорошем качестве Описание: В недалеком будущем космический корабль терпит бедствие, в результате чего совершает вынужденную посадку на отдаленной планете. ... 10 10 9
Info! Золотая раздача, скачанное не засчитывается.
Торрент: Зарегистрирован [2014-09-10 20:05] · скачан: 4 раз
Статус: √ проверено
Размер: 25.76 GB
Как cкачать? Как скачать Чёрная дыра через торрент | qTorrent

% Раздел Тема Автор DL S | L
Ultra HD (UHD: 2K, 4K, 8K) — видео сверхвысокой чёткости [ 53.51 GB ] Черная дыра / Кромешная тьма / Pitch Black [2000 UHD BDRemux 2160p ] [Режиссёрская версия] DUB bober100 Скачать
2 | 0
Ultra HD (UHD: 2K, 4K, 8K) — видео сверхвысокой чёткости [ 37.26 GB ] Черная дыра / Кромешная тьма / Pitch Black [2000 UHD BDRip 2160p] [Режиссёрская версия] DUB+MVO+2xAVO bober100 Скачать
2 | 0
Ultra HD (UHD: 2K, 4K, 8K) — видео сверхвысокой чёткости [ 62.85 GB ] Черная дыра / Кромешная тьма / Pitch Black [2000 UHD BDRemux 2160p ] [Режиссёрская версия] DUB+MVO+2xAVO bober100 Скачать
3 | 0
Ultra HD (UHD: 2K, 4K, 8K) — видео сверхвысокой чёткости [ 59.49 GB ] Черная дыра / Кромешная тьма / Pitch Black [2000 UHD BDRemux 2160p] [Режиссёрская версия] DUB+MVO+2xAVO bober100 Скачать
1 | 0
Видео (iPhone, iPod Touch) [ 2.02 GB ] Чёрная дыра / Pitch Black [2000 BDRip 1080p iPad ] makarevich Скачать
1 | 0
Фильмы до 2000 г. [ 2.18 GB ] Черная дыра / Pitch Black [2000 BDRip] chaga2009 Скачать
1 | 0
Фильмы [HD 720p, 1080p] (Хороший звук DUB, MVO) [ 4.97 GB ] Черная Дыра / Pitch Black [2000 BDRip 720p] [Режиссерская версия / Director's Cut] diletant Скачать
1 | 0


Последний раз редактировалось: -Lockdown- (2014-09-12 03:49), всего редактировалось 1 раз

28-11-2019 20:33  

Отключить всю рекламу на сайте

11-09-2014 17:53 Чёрная дыра Скачать торрент  

pb.wtf



12-09-2014 03:47 Чёрная дыра Скачать торрент  

Seedtank писал(а):


Спасибо pb.wtf



16-10-2017 20:29 Чёрная дыра Скачать торрент  

Дайте скоростиpb.wtf



    Дорогой пользователь! Огромная просьба, поблагодарите релизера, оцените раздачу и оставьте свои комментарий, если Вы скачали Чёрная дыра через торрент бесплатно! Внесите свою лепту в развитие PiratBit!
    Комментировать посты могут только пользователи прошедшие не сложную регистрацию
    Показать сообщения:    

    Чёрная дыра через торрент
    Скачать бесплатно Чёрная дыра
    Чёрная дыра скачать торрент
    Чёрная дыра смотреть онлайн
    Cкачать фильм Чёрная дыра бесплатно
    Чёрная дыра скачать торрент в хорошем качестве
    Чёрная дыра смотреть онлайн бесплатно в хорошем качестве


    Вы не можете начинать темы
    Вы не можете отвечать на сообщения
    Вы не можете редактировать свои сообщения
    Вы не можете удалять свои сообщения
    Вы не можете голосовать в опросах
    Вы не можете прикреплять файлы к сообщениям
    Вы можете скачивать файлы