Ссылка на приватное зеркало нашего сайта всего за 1$. Внимание количество ограничено!!!

2 сезон

iTunes

1 сезон

1

2 сезон

2 сезон

iTunes

1 сезон

RePack

30

Новинка

ВАЖНО

ИГРА 18+

pack

RePack

MK11
pack

Забери бонус

RePack

jed

!!Акция!!

Alien_Rage

RePack

fifa19

RePack

Assassins Creed: Odyssey

RePack

NEED FOR SPEED™ PAYBACK

4 сезон

9 сезон

Бесстыжие 9 сезон

Все сериалы

все сериалы на PB.wtf

RePack

FAR CRY 5
  

Разборка / Showdown (Роберт Рэдлер / Robert Radler) [1993, США, боевик, BD Remux, Авторский (одноголосый)] pb.wtf

Разборка через торрент pb.wtf

Размер: 23.8 GB | Добавлен: 6 лет 2 мес. назад | Торрент скачан:0 раз
Скачать  

10-09-2014 20:14 Разборка Скачать торрент  

Разборка / Showdown«There is no other way»
Год выпуска: 1993
Страна: США
Жанр: боевик
Продолжительность: 01:38:10
Перевод: Авторский (одноголосый)(Живов)+авторский (одноголосый)(Горчаков)
Субтитры: Отсутствует
Режиссер: Роберт Рэдлер / Robert Radler
В ролях:


Билли Блэнкс (Billy Grant), Кенн Скотт (Ken Marx), Кристин Тейлор (Julie), Джон Мэллори Ашер (Mike), Пэтрик Килпэтрик (Lee), Линда Дона (Kate), Кен МакЛеод (Tom), Майкл Кавалери (Rob), Сейди Лопес (Gina), Брайон Джеймс (Viсе Principal Kowalski), Майк Дженовезе (Officer Spinelli), Николас Хилл (James)

Описание:
Кен Маркс поступает в новую школу, где в первый же день находит себе врага, который зарабатывает на жизнь выступая в запрещенных полноконтанктных боях по каратэ. Школьный дворник Билли Грант решает помочь Кену постоять за себя, обучив его секретным приемчикам.


MPAA: PG-13 - Детям до 13 лет просмотр не желателен
Качество: BD Remux
Формат: MKV
Видео кодек:AVC
Аудио кодек:AC3
Видео: AVC, 1920x1080 (16:9), 33875 kbps, 23,976 fps, 0,667 bpp
Аудио №1: русский / AC3 / 2.0 / 48 kHz / 192 kbps / 16 bit |Живов|
Аудио №2: русский / AC3 / 2.0 / 48 kHz / 192 kbps / 16 bit |Горчаков|
Аудио №3: английский / AC3 / 5.1 / 48 kHz / 448 kbps / 16 bit|Original|


Формат : Matroska
Версия формата : Version 4 / Version 2
Размер файла : 23,8 Гбайт
Продолжительность : 1 ч. 38 м.
Режим общего битрейта : Постоянный
Общий поток : 34,7 Мбит/сек
Название фильма :
Дата кодирования : UTC 2014-09-09 12:29:50
Программа кодирования : mkvmerge v7.1.0 ('Good Love') 64bit built on Jul 27 2014 13:06:55
Библиотека кодирования : libebml v1.3.0 + libmatroska v1.4.1
DURATION : 01:38:11.264000000
NUMBER_OF_FRAMES : 184102
NUMBER_OF_BYTES : 329859584
_STATISTICS_WRITING_APP : mkvmerge v7.1.0 ('Good Love') 64bit built on Jul 27 2014 13:06:55
_STATISTICS_WRITING_DATE_UTC : 2014-09-09 12:29:50
_STATISTICS_TAGS : BPS DURATION NUMBER_OF_FRAMES NUMBER_OF_BYTES

Видео
Идентификатор : 1
Формат : AVC
Формат/Информация : Advanced Video Codec
Профиль формата : Main@L4.1
Параметр CABAC формата : Да
Параметр ReFrames формата : 3 кадра
Идентификатор кодека : V_MPEG4/ISO/AVC
Продолжительность : 1 ч. 38 м.
Вид битрейта : Постоянный
Битрейт : 33,2 Мбит/сек
Номинальный битрейт : 35,0 Мбит/сек
Ширина : 1920 пикселей
Высота : 1080 пикселей
Соотношение сторон : 16:9
Режим частоты кадров : Постоянный
Частота кадров : 23,976 кадра/сек
Стандарт вещания : NTSC
Цветовое пространство : YUV
Субдискретизация насыщенности : 4:2:0
Битовая глубина : 8 бит
Тип развёртки : Прогрессивная
Бит/(Пиксели*Кадры) : 0.667
Размер потока : 22,8 Гбайт (96%)
Default : Да
Forced : Нет

Аудио #1
Идентификатор : 2
Формат : AC-3
Формат/Информация : Audio Coding 3
Расширение режима : CM (complete main)
Параметр Endianness формата : Big
Идентификатор кодека : A_AC3
Продолжительность : 1 ч. 38 м.
Вид битрейта : Постоянный
Битрейт : 192 Кбит/сек
Каналы : 2 канала
Расположение каналов : Front: L R
Частота : 48,0 КГц
Битовая глубина : 16 бит
Метод сжатия : С потерями
Размер потока : 135 Мбайт (1%)
Язык : Russian
Default : Да
Forced : Нет

Аудио #2
Идентификатор : 3
Формат : AC-3
Формат/Информация : Audio Coding 3
Расширение режима : CM (complete main)
Параметр Endianness формата : Big
Идентификатор кодека : A_AC3
Продолжительность : 1 ч. 38 м.
Вид битрейта : Постоянный
Битрейт : 192 Кбит/сек
Каналы : 2 канала
Расположение каналов : Front: L R
Частота : 48,0 КГц
Битовая глубина : 16 бит
Метод сжатия : С потерями
Размер потока : 135 Мбайт (1%)
Язык : Russian
Default : Нет
Forced : Нет

Аудио #3
Идентификатор : 4
Формат : AC-3
Формат/Информация : Audio Coding 3
Расширение режима : CM (complete main)
Параметр Endianness формата : Big
Идентификатор кодека : A_AC3
Продолжительность : 1 ч. 38 м.
Вид битрейта : Постоянный
Битрейт : 448 Кбит/сек
Каналы : 6 каналов
Расположение каналов : Front: L C R, Side: L R, LFE
Частота : 48,0 КГц
Битовая глубина : 16 бит
Метод сжатия : С потерями
Размер потока : 315 Мбайт (1%)
Язык : English
Default : Нет
Forced : Нет


pb.wtf



Скачать Разборка через торрент http://s016.radikal.ru/i335/1409/6a/99ddc4253d7c.gif Скачать фильм Разборка через торрент бесплантно в хорошем качестве Описание: Кен Маркс поступает в новую школу, где в первый же день находит себе врага, который зарабатывает на жизнь выступая в запрещенных ... 10 10 2
Торрент: Зарегистрирован [2014-09-10 20:14] · скачан: 0 раз
Статус: √ проверено
Размер: 23.8 GB
Как cкачать? Как скачать Разборка через торрент | qTorrent

% Раздел Тема Автор DL S | L
Фильмы (HD 720p, 1080p) (48-60 fps) [ 3.2 GB ] Разборки в Маленьком Токио / Showdown In Little Tokyo [1991 BDRip 720p / 60 FPS ] от R.G. HD-Films slaventi-69 Скачать
1 | 0
Фильмы (Blu-ray, BD-Remux, HDDVD) [ 25.29 GB ] Разборки в маленьком Токио / Showdown In Little Tokyo [1991 Blu-Ray Remux 1080p] 2xDUB MVO DVO 5xAVO 2xMVO Леонид Ильич Скачать
1 | 0
Фильмы с авторской озвучкой [ 1.36 GB ] Разборка в маленьком Токио / Showdown in Little Tokyo [1991 BDRip] [AVO] killermax2013 Скачать
1 | 0
Фильмы (WEB-DL 720p, 1080p) [ 3.41 GB ] Разборка в Маниле / Showdown in Manila [2016 WEB-DL 1080p ] -Lexx- Скачать
1 | 0
Фильмы 2016 [DVDrip, WEB-DLRip, HDrip] (DUB, MVO) [ 2.07 GB ] Разборка в Маниле / Showdown in Manila [2016 Россия BDRip-AVC] Dub [Лизензия] Vitos03 Скачать
1 | 0
Фильмы 2016 [DVDrip, WEB-DLRip, HDrip] (DUB, MVO) [ 736 MB ] Разборка в Маниле / Showdown in Manila [2016 HDRip "BD RUS"] coc900 Скачать
1 | 0
Фильмы 2016 [DVDrip, WEB-DLRip, HDrip] (DUB, MVO) [ 1.46 GB ] Разборка в Маниле / Showdown in Manila [2016 WEB-DLRip] ] Twi7ter Скачать
1 | 0

28-11-2019 20:33  

Отключить всю рекламу на сайте

    Дорогой пользователь! Огромная просьба, поблагодарите релизера, оцените раздачу и оставьте свои комментарий, если Вы скачали Разборка через торрент бесплатно! Внесите свою лепту в развитие PiratBit!
    Комментировать посты могут только пользователи прошедшие не сложную регистрацию
    Показать сообщения:    

    Разборка через торрент
    Скачать бесплатно Разборка
    Разборка скачать торрент
    Разборка смотреть онлайн
    Cкачать фильм Разборка бесплатно
    Разборка скачать торрент в хорошем качестве
    Разборка смотреть онлайн бесплатно в хорошем качестве


    Вы не можете начинать темы
    Вы не можете отвечать на сообщения
    Вы не можете редактировать свои сообщения
    Вы не можете удалять свои сообщения
    Вы не можете голосовать в опросах
    Вы не можете прикреплять файлы к сообщениям
    Вы можете скачивать файлы