Ссылка на приватное зеркало нашего сайта всего за 1$. Внимание количество ограничено!!!

2 сезон

iTunes

1 сезон

1

iTunes

iTunes

iTunes

1 сезон

RePack

30

ИГРА 18+

pack

ВАЖНО

!!Акция!!

Alien_RageХит недели

RePack

MK11
pack

Забери бонус

RePack

jed

!!Акция!!

Alien_Rage

RePack

fifa19

RePack

Assassins Creed: Odyssey

RePack

NEED FOR SPEED™ PAYBACK

4 сезон

9 сезон

Бесстыжие 9 сезон

Все сериалы

все сериалы на PB.wtf

RePack

FAR CRY 5
  

Одинокий рейнджер / The Lone Ranger (Гор Вербински / Gore Verbinski) [2013, вестерн, приключения, боевик, BDRip 1080p, DUB, Лицензия] от R.G. HD-Films pb.wtf

Одинокий рейнджер через торрент pb.wtf

Размер: 16.87 GB | Добавлен: 6 лет 1 мес. назад | Торрент скачан:68 раз
Скачать  

10-09-2014 21:19 Одинокий рейнджер Скачать торрент  

Одинокий рейнджер / The Lone Ranger
«Никогда не снимай маску»



Год выпуска: 2013
Страна: США
Жанр: вестерн, приключения, боевик, комедия
Продолжительность: 02:29:33
Перевод: Дублированный [Лицензия]
Субтитры: Русские (Форсированные, Полные)



Режиссер:
  • Гор Вербински / Gore Verbinski
В ролях:
  • Джонни Депп, Арми Хаммер, Том Уилкинсон, Уильям Фихтнер, Рут Уилсон, Барри Пеппер, Хелена Бонем Картер, Брайант Принц, Стивен Рут, Леон Риппи, Джеймс Бэдж Дэйл, Мэйсон Кук

Описание: История блюстителя закона Джона Рида, который с помощью индейца Тонто стал легендарным мстителем в маске, стоящим на защите справедливости. Тонто с юмором и небылицами повествует о тех приключениях, которые пришлось пережить двум непохожим друг на друга героям, сведенным судьбой для того, чтобы вместе сражаться против общего врага. Им приходится противостоять жадности и коррупции во времена, когда появление первых железных дорог изменило представление о власти и могуществе в мире.



Качество: BDRip 1080p
Формат: MKV
Видео кодек: AVC
Аудио кодек: AC3 / DTS
Видео: 1920x800 (2.40:1), 23,976 fps, 14000 kbps, 0,380 bpp
Аудио №1: русский, AC3, 48 kHz, 5.1 ch, 640 kbps
Аудио №2: английский, DTS, 48 kHz, 5.1 ch, 1510 kbps


Код:

General
Unique ID                                : 185053831103319653892347330685098508508 (0x8B38124B802079FA8E11DEC3CE73C0DC)
Complete name                            : E:\Одинокий рейнджер (2013) BDRip 1080p.mkv
Format                                   : Matroska
Format version                           : Version 4 / Version 2
File size                                : 16.9 GiB
Duration                                 : 2h 29mn
Overall bit rate                         : 16.2 Mbps
Encoded date                             : UTC 2014-09-10 20:59:30
Writing application                      : mkvmerge v6.9.1 ('Blue Panther') 64bit built on Apr 18 2014 18:23:38
Writing library                          : libebml v1.3.0 + libmatroska v1.4.1
Attachment                               : Yes

Video
ID                                       : 1
Format                                   : AVC
Format/Info                              : Advanced Video Codec
Format profile                           : High@L4.1
Format settings, CABAC                   : Yes
Format settings, ReFrames                : 5 frames
Codec ID                                 : V_MPEG4/ISO/AVC
Duration                                 : 2h 29mn
Bit rate                                 : 14.0 Mbps
Width                                    : 1 920 pixels
Height                                   : 800 pixels
Display aspect ratio                     : 2.40:1
Frame rate                               : 23.976 fps
Color space                              : YUV
Chroma subsampling                       : 4:2:0
Bit depth                                : 8 bits
Scan type                                : Progressive
Bits/(Pixel*Frame)                       : 0.380
Stream size                              : 14.3 GiB (85%)
Writing library                          : x264 core 138 r2358kMod 9e941d1
Encoding settings                        : cabac=1 / ref=5 / deblock=1:-3:-3 / analyse=0x3:0x113 / me=tesa / subme=11 / psy=1 / fade_compensate=0.00 / psy_rd=1.20:0.00 / mixed_ref=1 / me_range=48 / chroma_me=1 / trellis=2 / 8x8dct=1 / cqm=0 / deadzone=21,11 / fast_pskip=0 / chroma_qp_offset=-2 / threads=16 / lookahead_threads=2 / sliced_threads=0 / nr=0 / decimate=0 / interlaced=0 / bluray_compat=0 / constrained_intra=0 / bframes=8 / b_pyramid=2 / b_adapt=2 / b_bias=0 / direct=3 / weightb=1 / open_gop=0 / weightp=2 / keyint=240 / keyint_min=23 / scenecut=40 / intra_refresh=0 / rc_lookahead=240 / rc=2pass / mbtree=0 / bitrate=14000 / ratetol=1.0 / qcomp=0.70 / qpmin=0 / qpmax=69 / qpstep=4 / cplxblur=20.0 / qblur=0.5 / vbv_maxrate=50000 / vbv_bufsize=62500 / nal_hrd=none / ip_ratio=1.30 / pb_ratio=1.20 / aq=3:0.90
Language                                 : English
Default                                  : Yes
Forced                                   : No

Audio #1
ID                                       : 2
Format                                   : AC-3
Format/Info                              : Audio Coding 3
Mode extension                           : CM (complete main)
Codec ID                                 : A_AC3
Duration                                 : 2h 29mn
Bit rate mode                            : Constant
Bit rate                                 : 640 Kbps
Channel(s)                               : 6 channels
Channel positions                        : Front: L C R, Side: L R, LFE
Sampling rate                            : 48.0 KHz
Bit depth                                : 16 bits
Compression mode                         : Lossy
Stream size                              : 685 MiB (4%)
Language                                 : Russian
Default                                  : Yes
Forced                                   : Yes

Audio #2
ID                                       : 3
Format                                   : DTS
Format/Info                              : Digital Theater Systems
Codec ID                                 : A_DTS
Duration                                 : 2h 29mn
Bit rate mode                            : Constant
Bit rate                                 : 1 510 Kbps
Channel(s)                               : 6 channels
Channel positions                        : Front: L C R, Side: L R, LFE
Sampling rate                            : 48.0 KHz
Bit depth                                : 24 bits
Compression mode                         : Lossy
Stream size                              : 1.58 GiB (9%)
Language                                 : English
Default                                  : No
Forced                                   : No

Text #1
ID                                       : 4
Format                                   : UTF-8
Codec ID                                 : S_TEXT/UTF8
Codec ID/Info                            : UTF-8 Plain Text
Title                                    : Форсированные
Language                                 : Russian
Default                                  : Yes
Forced                                   : Yes

Text #2
ID                                       : 5
Format                                   : UTF-8
Codec ID                                 : S_TEXT/UTF8
Codec ID/Info                            : UTF-8 Plain Text
Title                                    : Полные
Language                                 : Russian
Default                                  : No
Forced                                   : No

Menu
00:00:00.000                             : en:Tonto's Story
00:08:16.120                             : en:The Train
00:13:38.776                             : en:The Great Escape
00:24:51.406                             : en:Rebecca
00:29:03.032                             : en:The Forces of Evil
00:32:05.840                             : en:The Manhunt
00:40:32.012                             : en:Trading with the Dead
00:45:29.643                             : en:Unbalanced
00:53:29.664                             : en:Red's
01:01:05.662                             : en:The Natives Are Coming
01:10:01.614                             : en:The Valley of Tears
01:16:12.317                             : en:Tonto's Past
01:24:45.455                             : en:Trapped
01:28:39.731                             : en:At the River's Start
01:35:35.187                             : en:All Could Be Yours
01:41:13.984                             : en:Deceit
01:46:35.806                             : en:The Mine
01:50:02.178                             : en:The Natives Attack
01:53:55.203                             : en:I'd Rather Be an Outlaw
01:56:15.259                             : en:The Railroad Is Finished
02:01:51.095                             : en:This Is a Train Robbery
02:12:07.210                             : en:Bad Trade
02:17:13.934                             : en:Allies
02:20:20.286                             : en:End Credits

pb.wtf



Скачать Одинокий рейнджер через торрент http://i66.fastpic.ru/big/2014/0909/b7/760e3b5f2bbe95bf68d689b83ee8a7b7.png Скачать фильм Одинокий рейнджер через торрент бесплантно в хорошем качестве Описание: История блюстителя закона Джона Рида, который с помощью индейца Тонто стал легендарным мстителем в маске, стоящим на защите ... 10 10 9
Info! Золотая раздача, скачанное не засчитывается.
Торрент: Зарегистрирован [2014-09-10 21:26] · скачан: 68 раз
Статус: √ проверено
Размер: 16.87 GB
Как cкачать? Как скачать Одинокий рейнджер через торрент | qTorrent

28-11-2019 20:33  

Отключить всю рекламу на сайте

23-02-2015 14:37 Одинокий рейнджер Скачать торрент  

Seedtank, ты вообще раздавать собираешься или нет?pb.wtf



22-04-2020 09:10 Одинокий рейнджер Скачать торрент  

Это мертвая раздачаpb.wtf



    Дорогой пользователь! Огромная просьба, поблагодарите релизера, оцените раздачу и оставьте свои комментарий, если Вы скачали Одинокий рейнджер через торрент бесплатно! Внесите свою лепту в развитие PiratBit!
    Комментировать посты могут только пользователи прошедшие не сложную регистрацию
    Показать сообщения:    

    Одинокий рейнджер через торрент
    Скачать бесплатно Одинокий рейнджер
    Одинокий рейнджер скачать торрент
    Одинокий рейнджер смотреть онлайн
    Cкачать фильм Одинокий рейнджер бесплатно
    Одинокий рейнджер скачать торрент в хорошем качестве
    Одинокий рейнджер смотреть онлайн бесплатно в хорошем качестве


    Вы не можете начинать темы
    Вы не можете отвечать на сообщения
    Вы не можете редактировать свои сообщения
    Вы не можете удалять свои сообщения
    Вы не можете голосовать в опросах
    Вы не можете прикреплять файлы к сообщениям
    Вы можете скачивать файлы