Death Stranding+DLC+АВТОАКТИВАЦИЯ

iTunes

iTunes

iTunes

1

iTunes

iTunes

iTunes

iTunes

iTunes

30
pack

$ от Little Big

ВАЖНО

!!Акция!!

Alien_RageХит недели

RePack

Resident Evil 21

ИГРА 18+

pack

RePack

jed

!!Акция!!

Alien_Rage

RePack

fifa19

RePack

Assassins Creed: Odyssey

RePack

NEED FOR SPEED™ PAYBACK

4 сезон

9 сезон

Бесстыжие 9 сезон

Все сериалы

все сериалы на PB.wtf

RePack

FAR CRY 5
  

Эпатаж / Shock Value (Даг Джонсон) [2014, ужасы, комедия, WEB-DL 720p, MVO] pb.wtf

Эпатаж через торрент pb.wtf

Размер: 2.98 GB | Добавлен: 5 лет 10 мес. назад | Торрент скачан:42 раза
Скачать  

10-09-2014 21:26 Эпатаж Скачать торрент  

Эпатаж / Shock Value


Год выпуска: 2014
Страна: США
Жанр:ужасы, комедия
Продолжительность:01:29:34
Перевод:Любительское (многоголосое) [Antonio, den904, Александр Харченко, DeadSno & Ворон] (ОХ! Колобок INC.)
Режиссер:Даг Джонсон

  • В ролях:
    Зак Хадсон (Miles Fowler), Энтони Браво (Nick), Janelle Odair (Ashley), Мишель Кэмпбелл (Justine), Will Brandt (Jeff), Малкольм МакДауэлл (Edmund Dean Huntley), Рик Шапиро (Sol), Стивен Дж. Оливер (Ruben), Шоун Вудс (Josh Lamb), Джо Фаркас (Sol's Mother), Эрл Томпсон (Lester), Тесса Фаулер (Naked Actress)


  • Описание:
    Борясь за фильм категории «B» генеральный директор шантажирует серийную убийцу, чтобы он был звездой его следующего фильма.

  • Мировая премьера:1 августа 2014

    Качество: WEB-DL 720p
    Формат:MKV
    Видео кодек: AVC
    Аудио кодек:AC3
    Видео: 3908 kb/s, 1280x532, 23,976 fps
    Аудио: русский / AC3 / 5.1 / 48 kHz / 384 kbps / 16 bit ||
    Аудио2: English / AC3 / 5.1 / 48 kHz / 384 kbps / 16 bit ||


    Код:

    Format : Matroska
    Format version : Version 4 / Version 2
    File size : 2.98 GiB
    Duration : 1h 29mn
    Overall bit rate : 4 770 Kbps
    Encoded date : UTC 2014-09-10 17:44:34
    Writing application : mkvmerge v7.1.0 ('Good Love') 32bit built on Jul 27 2014 12:59:18
    Writing library : libebml v1.3.0 + libmatroska v1.4.1
    DURATION : 01:29:34.560000000
    NUMBER_OF_FRAMES : 167955
    NUMBER_OF_BYTES : 257978880
    _STATISTICS_WRITING_APP : mkvmerge v7.1.0 ('Good Love') 32bit built on Jul 27 2014 12:59:18
    _STATISTICS_WRITING_DATE_UTC : 2014-09-10 17:44:34
    _STATISTICS_TAGS : BPS DURATION NUMBER_OF_FRAMES NUMBER_OF_BYTES

    Video
    ID : 1
    Format : AVC
    Format/Info : Advanced Video Codec
    Format profile : Main@L3.1
    Format settings, CABAC : No
    Format settings, ReFrames : 2 frames
    Codec ID : V_MPEG4/ISO/AVC
    Duration : 1h 29mn
    Bit rate : 3 908 Kbps
    Width : 1 280 pixels
    Height : 532 pixels
    Display aspect ratio : 2.40:1
    Frame rate : 23.976 fps
    Color space : YUV
    Chroma subsampling : 4:2:0
    Bit depth : 8 bits
    Scan type : Progressive
    Bits/(Pixel*Frame) : 0.239
    Stream size : 2.44 GiB (82%)
    Language : English
    Default : Yes
    Forced : No
    Color primaries : BT.709-5, BT.1361, IEC 61966-2-4, SMPTE RP177
    Transfer characteristics : BT.709-5, BT.1361
    Matrix coefficients : BT.709-5, BT.1361, IEC 61966-2-4 709, SMPTE RP177

    Audio #1
    ID : 2
    Format : AC-3
    Format/Info : Audio Coding 3
    Mode extension : CM (complete main)
    Format settings, Endianness : Big
    Codec ID : A_AC3
    Duration : 1h 29mn
    Bit rate mode : Constant
    Bit rate : 384 Kbps
    Channel(s) : 6 channels
    Channel positions : Front: L C R, Side: L R, LFE
    Sampling rate : 48.0 KHz
    Bit depth : 16 bits
    Compression mode : Lossy
    Stream size : 246 MiB (8%)
    Title : Колобок
    Language : Russian
    Default : Yes
    Forced : Yes

    Audio #2
    ID : 3
    Format : AC-3
    Format/Info : Audio Coding 3
    Mode extension : CM (complete main)
    Format settings, Endianness : Big
    Codec ID : A_AC3
    Duration : 1h 29mn
    Bit rate mode : Constant
    Bit rate : 384 Kbps
    Channel(s) : 6 channels
    Channel positions : Front: L C R, Side: L R, LFE
    Sampling rate : 48.0 KHz
    Bit depth : 16 bits
    Compression mode : Lossy
    Stream size : 246 MiB (8%)
    Language : English
    Default : No
    Forced : No

    Скриншоты:

    Срочно! Нужна помощь!
    Поблагодарить релизера!
    pb.wtf



  • Скачать Эпатаж через торрент http://pic.kartinco.top/images/6/stazu.jpg Скачать фильм Эпатаж через торрент бесплантно в хорошем качестве Описание:Борясь за фильм категории «B» генеральный директор шантажирует серийную убийцу, чтобы он был звездой его следующего фильма.Мировая ... 9.6 10 5
    Торрент: Зарегистрирован [2014-09-10 21:26] · скачан: 42 раз
    Статус: √ проверено
    Размер: 2.98 GB
    Как cкачать? Как скачать Эпатаж через торрент | qTorrent

    % Раздел Тема Автор DL S | L
    T Фильмы 2014 [DVDrip, WEB-DLRip, HDrip] [ 1.36 GB ] Эпатаж / Shock Value [2014 WEB-DLRip MVO] Ворон Скачать
    1 | 0

    28-11-2019 20:33  

    Отключить всю рекламу на сайте

      Дорогой пользователь! Огромная просьба, поблагодарите релизера, оцените раздачу и оставьте свои комментарий, если Вы скачали Эпатаж через торрент бесплатно! Внесите свою лепту в развитие PiratBit!
      Комментировать посты могут только пользователи прошедшие не сложную регистрацию
      Показать сообщения:    

      Эпатаж через торрент
      Скачать бесплатно Эпатаж
      Эпатаж скачать торрент
      Эпатаж смотреть онлайн
      Cкачать фильм Эпатаж бесплатно
      Эпатаж скачать торрент в хорошем качестве
      Эпатаж смотреть онлайн бесплатно в хорошем качестве


      Вы не можете начинать темы
      Вы не можете отвечать на сообщения
      Вы не можете редактировать свои сообщения
      Вы не можете удалять свои сообщения
      Вы не можете голосовать в опросах
      Вы не можете прикреплять файлы к сообщениям
      Вы можете скачивать файлы