Ссылка на приватное зеркало нашего сайта всего за 1$. Внимание количество ограничено!!!

2 сезон

iTunes

1 сезон

1

2 сезон

2 сезон

iTunes

1 сезон

RePack

30

Новинка

ВАЖНО

ИГРА 18+

pack

RePack

MK11
pack

Забери бонус

RePack

jed

!!Акция!!

Alien_Rage

RePack

fifa19

RePack

Assassins Creed: Odyssey

RePack

NEED FOR SPEED™ PAYBACK

4 сезон

9 сезон

Бесстыжие 9 сезон

Все сериалы

все сериалы на PB.wtf

RePack

FAR CRY 5
  

Кладбище / The Cemetery (Адам Албрандт / Adam Ahlbrandt) [2013, США, ужасы, BDRip 720p,Любительский (двухголосый)[den904 & DeadSno] pb.wtf

Кладбище через торрент pb.wtf

Размер: 3.49 GB | Добавлен: 6 лет 2 мес. назад | Торрент скачан:76 раз
Скачать  

11-09-2014 04:54 Кладбище Скачать торрент  

Кладбище / The Cemetery

Год выпуска: 2013
Страна: США
Жанр: ужасы
Продолжительность: 01:21:53
Перевод: Любительский (двухголосый)[den904 & DeadSno], перевод МЕГАПЫХАРЬ
Субтитры: Нет
Режиссер: Адам Албрандт / Adam Ahlbrandt
В ролях: Дж.Д. Браун (Bill), Natalie Jean (Andrea), Адам Хасс (Tim), Тим Кронин (Mike), Табета Рэй (Sandra), Билли Грэм (Demon / Indian), Роберто Ломбарди (The Priest), Руби ЛаРокка (Meg), Victor Bonacore (Doug), Гордон Прайс (Torture victim), Лиз Уолш (Torture Victim), Allegra DiNetta (Torture Victim)
Описание:
Команда исследователей паранормальных явлений должны бороться за свою жизнь после того, как случайно выпустили демона из забытого кладбища.
Рейтинг
kinopoisk.ru: 3.471 (65)
imdb.com: 4.10 (158)
Качество: BDRip 720p
Формат: MKV
Видео кодек: AVC
Аудио кодек:AC3
Видео: AVC, 1280x720 (16:9), 5709 kbps, 23,976 fps, 0,258 bpp
Аудио №1: русский / AC3 / 2.0 / 48 kHz / 192 kbps / 16 bit ||
Аудио №2: немецкий / AC3 / 2.0 / 48 kHz / 192 kbps / 16 bit

General
Complete name : C:\Users\oO\Desktop\Загрузки с Mozilla\The.Cemetry.2013.L2.BDRip.720p.mkv
Format : Matroska
Format version : Version 4 / Version 2
File size : 3.49 GiB
Duration : 1h 21mn
Overall bit rate : 6 104 Kbps
Movie name : Rib by 03nazar03
Encoded date : UTC 2014-09-04 09:47:06
Writing application : mkvmerge v6.1.0 ('Old Devil') built on Mar 4 2013 09:10:42
Writing library : libebml v1.3.0 + libmatroska v1.4.0

Video
ID : 1
Format : AVC
Format/Info : Advanced Video Codec
Format profile : High@L4.1
Format settings, CABAC : Yes
Format settings, ReFrames : 9 frames
Codec ID : V_MPEG4/ISO/AVC
Duration : 1h 21mn
Bit rate : 5 709 Kbps
Width : 1 280 pixels
Height : 720 pixels
Display aspect ratio : 16:9
Frame rate : 23.976 fps
Color space : YUV
Chroma subsampling : 4:2:0
Bit depth : 8 bits
Scan type : Progressive
Bits/(Pixel*Frame) : 0.258
Stream size : 3.20 GiB (92%)
Writing library : x264 core 130 r2273 b3065e6
Encoding settings : cabac=1 / ref=9 / deblock=1:-3:-3 / analyse=0x3:0x133 / me=umh / subme=11 / psy=1 / psy_rd=1.00:0.20 / mixed_ref=1 / me_range=32 / chroma_me=1 / trellis=2 / 8x8dct=1 / cqm=0 / deadzone=21,11 / fast_pskip=1 / chroma_qp_offset=-3 / threads=18 / lookahead_threads=3 / sliced_threads=0 / nr=0 / decimate=1 / interlaced=0 / bluray_compat=0 / constrained_intra=0 / bframes=8 / b_pyramid=2 / b_adapt=2 / b_bias=0 / direct=3 / weightb=1 / open_gop=0 / weightp=2 / keyint=250 / keyint_min=23 / scenecut=40 / intra_refresh=0 / rc=2pass / mbtree=0 / bitrate=5709 / ratetol=1.0 / qcomp=0.60 / qpmin=0 / qpmax=69 / qpstep=4 / cplxblur=20.0 / qblur=0.5 / ip_ratio=1.40 / pb_ratio=1.30 / aq=1:1.00
Language : German
Default : Yes
Forced : No

Audio #1
ID : 2
Format : AC-3
Format/Info : Audio Coding 3
Mode extension : CM (complete main)
Codec ID : A_AC3
Duration : 1h 21mn
Bit rate mode : Constant
Bit rate : 192 Kbps
Channel(s) : 2 channels
Channel positions : Front: L R
Sampling rate : 48.0 KHz
Bit depth : 16 bits
Compression mode : Lossy
Stream size : 112 MiB (3%)
Language : Russian
Default : Yes
Forced : No

Audio #2
ID : 3
Format : AC-3
Format/Info : Audio Coding 3
Mode extension : CM (complete main)
Codec ID : A_AC3
Duration : 1h 21mn
Bit rate mode : Constant
Bit rate : 192 Kbps
Channel(s) : 2 channels
Channel positions : Front: L R
Sampling rate : 48.0 KHz
Bit depth : 16 bits
Compression mode : Lossy
Stream size : 112 MiB (3%)
Language : German
Default : No
Forced : No
DURATION : 01:17:51.751000000
NUMBER_OF_FRAMES : 1505
NUMBER_OF_BYTES : 17661017
_STATISTICS_WRITING_APP : mkvmerge v7.1.0 ('Good Love') 64bit built on Jul 27 2014 11:26:08
_STATISTICS_WRITING_DATE_UTC : 2014-08-17 15:30:15
_STATISTICS_TAGS : BPS DURATION NUMBER_OF_FRAMES NUMBER_OF_BYTES

Text
ID : 4
Format : PGS
Muxing mode : zlib
Codec ID : S_HDMV/PGS
Codec ID/Info : The same subtitle format used on BDs/HD-DVDs
Language : German
Default : No
Forced : No

Menu
00:00:00.000 : en:Chapter 01
00:06:45.655 : en:Chapter 02
00:13:29.558 : en:Chapter 03
00:22:39.358 : en:Chapter 04
00:29:03.783 : en:Chapter 05
00:34:37.325 : en:Chapter 06
00:40:26.757 : en:Chapter 07
00:47:38.856 : en:Chapter 08
00:54:14.251 : en:Chapter 09
01:01:40.446 : en:Chapter 10
01:07:12.695 : en:Chapter 11
01:15:17.137 : en:Chapter 12
pb.wtf



Скачать Кладбище через торрент http://i67.fastpic.ru/big/2014/0911/ec/5f824d85834ca4af92f247864455a3ec.jpg Скачать фильм Кладбище через торрент бесплантно в хорошем качестве Описание: Команда исследователей паранормальных явлений должны бороться за свою жизнь после того, как случайно выпустили демона из забытого ... 7.8 10 4
Торрент: Зарегистрирован [2014-09-11 04:54] · скачан: 76 раз
Статус: √ проверено
Размер: 3.49 GB
Как cкачать? Как скачать Кладбище через торрент | qTorrent

% Раздел Тема Автор DL S | L
Ultra HD (UHD: 2K, 4K, 8K) — видео сверхвысокой чёткости [ 46.41 GB ] Дом на краю кладбища / Quella villa accanto al cimitero / The House By The Cemetery [1981 UHD BDRemux 2160p ] MVO [] bober100 Скачать
1 | 2
Ultra HD (UHD: 2K, 4K, 8K) — видео сверхвысокой чёткости [ 53.15 GB ] Дом на краю кладбища / Quella villa accanto al cimitero / The House By The Cemetery [1981 UHD BDRemux 2160p ] MVO [] +2xAVO bober100 Скачать
1 | 0
Фильмы 2013 [DVDrip, WEB-DLRip, HDrip] [ 1.38 GB ] Кладбище / The Cemetery [2013 HDRip Любительский [den904 DeadSno] Ворон Скачать
1 | 0

28-11-2019 20:33  

Отключить всю рекламу на сайте

11-09-2014 10:03 Кладбище Скачать торрент  

Не тратьтте своё время... - Просто - НЕ Стоит Потраченного времени! .. Может я и ошибаюсь, но - только не в Этот Раз! :hmmm :cansored: :jest3: pb.wtf



11-09-2014 10:54 Кладбище Скачать торрент  

рейтинг доставляетpb.wtf



    Дорогой пользователь! Огромная просьба, поблагодарите релизера, оцените раздачу и оставьте свои комментарий, если Вы скачали Кладбище через торрент бесплатно! Внесите свою лепту в развитие PiratBit!
    Комментировать посты могут только пользователи прошедшие не сложную регистрацию
    Показать сообщения:    

    Кладбище через торрент
    Скачать бесплатно Кладбище
    Кладбище скачать торрент
    Кладбище смотреть онлайн
    Cкачать фильм Кладбище бесплатно
    Кладбище скачать торрент в хорошем качестве
    Кладбище смотреть онлайн бесплатно в хорошем качестве


    Вы не можете начинать темы
    Вы не можете отвечать на сообщения
    Вы не можете редактировать свои сообщения
    Вы не можете удалять свои сообщения
    Вы не можете голосовать в опросах
    Вы не можете прикреплять файлы к сообщениям
    Вы можете скачивать файлы