Ссылка на приватное зеркало нашего сайта всего за 1$. Внимание количество ограничено!!!

2 сезон

iTunes

1 сезон

1

iTunes

iTunes

iTunes

1 сезон

RePack

30

ИГРА 18+

pack

ВАЖНО

!!Акция!!

Alien_RageХит недели

RePack

MK11
pack

Забери бонус

RePack

jed

!!Акция!!

Alien_Rage

RePack

fifa19

RePack

Assassins Creed: Odyssey

RePack

NEED FOR SPEED™ PAYBACK

4 сезон

9 сезон

Бесстыжие 9 сезон

Все сериалы

все сериалы на PB.wtf

RePack

FAR CRY 5
  

Ананасовый экспресс: Сижу, курю / Pineapple Express (Дэвид Гордон Грин / David Gordon Green) [2008, боевик, комедия, криминал, BDRip 1080p, DUB, Лицензия] от R.G. HD-Films pb.wtf

Ананасовый экспресс: Сижу, курю через торрент pb.wtf

Размер: 9.58 GB | Добавлен: 6 лет 1 мес. назад | Торрент скачан:95 раз
Скачать  

11-09-2014 13:45 Ананасовый экспресс: Сижу, курю Скачать торрент  

Ананасовый экспресс: Сижу, курю / Pineapple Express
«Put this in your pipe and smoke it»



Год выпуска: 2008
Страна: США
Жанр: боевик, комедия, криминал
Продолжительность: 01:52:02
Перевод: Дублированный [Лицензия]
Субтитры: Русские (Полные)



Режиссер:
  • Дэвид Гордон Грин / David Gordon Green
В ролях:
  • Сет Роген, Джеймс Франко, Дэнни МакБрайд, Кевин Корригэн, Крэйг Робинсон, Гэри Коул, Рози Перес, Эд Бегли мл., Нора Данн, Эмбер Хёрд, Джо Ло Трульо, Артур Напионтек

Описание: Раздолбай и любитель травки случайно становится свидетелем убийства и, прихватив своего дружка, такого же лузера, как он, пытается свалить из города, спасаясь от Плохих Парней. Дело пахнет керосином, ведь мафия решила заставить приятелей замолчать навсегда.



Качество: BDRip 1080p
Формат: MKV
Видео кодек: AVC
Аудио кодек: AC3 / DTS
Видео: 1920x800 (2.40:1), 23,976 fps, 10280 kbps, 0,279 bpp
Аудио №1: русский, AC3, 48 kHz, 5.1 ch, 448 kbps
Аудио №2: английский, DTS, 48 kHz, 5.1 ch, 1510 kbps


Код:

Общее
Уникальный идентификатор                 : 215702225382275009666512066412828180663 (0xA246BCCC5F397A03819279EB2ED040B7)
Полное имя                               : E:\Ананасовый экспресс. Сижу, курю (2008) BDRip 1080p.mkv
Формат                                   : Matroska
Версия формата                           : Version 4 / Version 2
Размер файла                             : 9,58 Гбайт
Продолжительность                        : 1 ч. 52 м.
Общий поток                              : 12,2 Мбит/сек
Дата кодирования                         : UTC 2014-09-11 17:36:31
Программа кодирования                    : mkvmerge v6.9.1 ('Blue Panther') 64bit built on Apr 18 2014 18:23:38
Библиотека кодирования                   : libebml v1.3.0 + libmatroska v1.4.1
Обложка                                  : Yes

Видео
Идентификатор                            : 1
Формат                                   : AVC
Формат/Информация                        : Advanced Video Codec
Профиль формата                          : High@L4.1
Параметр CABAC формата                   : Да
Параметр ReFrames формата                : 5 кадров
Идентификатор кодека                     : V_MPEG4/ISO/AVC
Продолжительность                        : 1 ч. 52 м.
Битрейт                                  : 10,3 Мбит/сек
Ширина                                   : 1920 пикселей
Высота                                   : 800 пикселей
Соотношение сторон                       : 2,40:1
Режим частоты кадров                     : Постоянный
Частота кадров                           : 23,976 кадра/сек
Цветовое пространство                    : YUV
Субдискретизация насыщенности            : 4:2:0
Битовая глубина                          : 8 бит
Тип развёртки                            : Прогрессивная
Бит/(Пиксели*Кадры)                      : 0.279
Размер потока                            : 7,85 Гбайт (82%)
Библиотека кодирования                   : x264 core 65 r1080M 56e9183
Настройки программы                      : cabac=1 / ref=5 / deblock=1:-3:-3 / analyse=0x3:0x113 / me=umh / subme=9 / psy_rd=1.0:0.0 / mixed_ref=1 / me_range=32 / chroma_me=1 / trellis=0 / 8x8dct=1 / cqm=2 / deadzone=6,4 / chroma_qp_offset=-2 / threads=6 / nr=0 / decimate=0 / mbaff=0 / bframes=3 / b_pyramid=1 / b_adapt=2 / b_bias=0 / direct=3 / wpredb=1 / keyint=240 / keyint_min=24 / scenecut=40(pre) / rc=2pass / bitrate=10280 / ratetol=1.0 / qcomp=0.60 / qpmin=10 / qpmax=51 / qpstep=4 / cplxblur=20.0 / qblur=0.5 / ip_ratio=1.40 / pb_ratio=1.30 / aq=1:1.00
Язык                                     : English
Default                                  : Да
Forced                                   : Нет

Аудио #1
Идентификатор                            : 2
Формат                                   : AC-3
Формат/Информация                        : Audio Coding 3
Расширение режима                        : CM (complete main)
Параметр Endianness формата              : Big
Идентификатор кодека                     : A_AC3
Продолжительность                        : 1 ч. 52 м.
Вид битрейта                             : Постоянный
Битрейт                                  : 448 Кбит/сек
Каналы                                   : 6 каналов
Расположение каналов                     : Front: L C R, Side: L R, LFE
Частота                                  : 48,0 КГц
Битовая глубина                          : 16 бит
Метод сжатия                             : С потерями
Размер потока                            : 359 Мбайт (4%)
Язык                                     : Russian
Default                                  : Да
Forced                                   : Да

Аудио #2
Идентификатор                            : 3
Формат                                   : DTS
Формат/Информация                        : Digital Theater Systems
Режим                                    : 16
Параметр Endianness формата              : Big
Идентификатор кодека                     : A_DTS
Продолжительность                        : 1 ч. 52 м.
Вид битрейта                             : Постоянный
Битрейт                                  : 1510 Кбит/сек
Каналы                                   : 6 каналов
Расположение каналов                     : Front: L C R, Side: L R, LFE
Частота                                  : 48,0 КГц
Битовая глубина                          : 24 бит
Метод сжатия                             : С потерями
Размер потока                            : 1,18 Гбайт (12%)
Язык                                     : English
Default                                  : Нет
Forced                                   : Нет

Текст
Идентификатор                            : 4
Формат                                   : UTF-8
Идентификатор кодека                     : S_TEXT/UTF8
Идентификатор кодека/Информация          : UTF-8 Plain Text
Заголовок                                : Полные
Язык                                     : Russian
Default                                  : Нет
Forced                                   : Нет

Меню
00:00:00.000                             : en:00:00:00.000
00:04:07.538                             : en:00:04:07.538
00:13:25.387                             : en:00:13:25.387
00:20:30.812                             : en:00:20:30.812
00:29:23.636                             : en:00:29:23.636
00:37:56.565                             : en:00:37:56.565
00:45:54.126                             : en:00:45:54.126
00:53:58.151                             : en:00:53:58.151
00:59:27.480                             : en:00:59:27.480
01:06:35.950                             : en:01:06:35.950
01:11:53.475                             : en:01:11:53.475
01:16:07.187                             : en:01:16:07.187
01:25:56.818                             : en:01:25:56.818
01:33:26.142                             : en:01:33:26.142
01:41:06.602                             : en:01:41:06.602
01:43:57.564                             : en:01:43:57.564

pb.wtf



Скачать Ананасовый экспресс: Сижу, курю через торрент http://i66.fastpic.ru/big/2014/0909/b7/760e3b5f2bbe95bf68d689b83ee8a7b7.png Скачать фильм Ананасовый экспресс: Сижу, курю через торрент бесплантно в хорошем качестве Описание: Раздолбай и любитель травки случайно становится свидетелем убийства и, прихватив своего дружка, такого же лузера, как он, ... 10 10 12
Info! Золотая раздача, скачанное не засчитывается.
Торрент: Зарегистрирован [2014-09-11 19:10] · скачан: 95 раз
Статус: √ проверено
Размер: 9.58 GB
Как cкачать? Как скачать Ананасовый экспресс: Сижу, курю через торрент | qTorrent

28-11-2019 20:33  

Отключить всю рекламу на сайте

11-09-2014 19:31 Ананасовый экспресс: Сижу, курю Скачать торрент  

Чумовой фильмец)) спасибо.pb.wtf



    Дорогой пользователь! Огромная просьба, поблагодарите релизера, оцените раздачу и оставьте свои комментарий, если Вы скачали Ананасовый экспресс: Сижу, курю через торрент бесплатно! Внесите свою лепту в развитие PiratBit!
    Комментировать посты могут только пользователи прошедшие не сложную регистрацию
    Показать сообщения:    

    Ананасовый экспресс: Сижу, курю через торрент
    Скачать бесплатно Ананасовый экспресс: Сижу, курю
    Ананасовый экспресс: Сижу, курю скачать торрент
    Ананасовый экспресс: Сижу, курю смотреть онлайн
    Cкачать фильм Ананасовый экспресс: Сижу, курю бесплатно
    Ананасовый экспресс: Сижу, курю скачать торрент в хорошем качестве
    Ананасовый экспресс: Сижу, курю смотреть онлайн бесплатно в хорошем качестве


    Вы не можете начинать темы
    Вы не можете отвечать на сообщения
    Вы не можете редактировать свои сообщения
    Вы не можете удалять свои сообщения
    Вы не можете голосовать в опросах
    Вы не можете прикреплять файлы к сообщениям
    Вы можете скачивать файлы