Ссылка на приватное зеркало всего за 1$. Внимание количество ограничено!!!

iTunes

iTunes

iTunes

1

iTunes

iTunes

iTunes

iTunes

iTunes

30
pack

$ от Little Big

ВАЖНО

!!Акция!!

Alien_RageХит недели

RePack

Resident Evil 21

ИГРА 18+

pack

RePack

jed

!!Акция!!

Alien_Rage

RePack

fifa19

RePack

Assassins Creed: Odyssey

RePack

NEED FOR SPEED™ PAYBACK

4 сезон

9 сезон

Бесстыжие 9 сезон

Все сериалы

все сериалы на PB.wtf

RePack

FAR CRY 5
  

Пакт 2 / The Pact II (Даллас Ричард Халлам / Dallas Richard Hallam, Патрик Хорват / Patrick Horvath) [2014, США, ужасы, триллер, детектив, WEB-DL 720p,Любительский (одноголосый) [RAIM], перевод [Janetta] pb.wtf

Пакт 2 через торрент pb.wtf

Размер: 3 GB | Добавлен: 5 лет 9 мес. назад | Торрент скачан:99 раз
Скачать  

11-09-2014 13:55 Пакт 2 Скачать торрент  

Пакт 2 / The Pact II

Год выпуска: 2014
Страна: США
Жанр: ужасы, триллер, детектив
Продолжительность: 01:35:57
Перевод: Любительский (одноголосый) [RAIM], перевод [Janetta]
Субтитры:English
Режиссер: Даллас Ричард Халлам / Dallas Richard Hallam, Патрик Хорват / Patrick Horvath
В ролях: Кейти Лотц (Annie), Камилла Ладдингтон (June Abbott), Скотт Майкл Фостер, Патрик Фишлер, Эми Пьетц (Maggie Abbot, слухи), Хейли Хадсон (Stevie), Ники Мишо (Lt. Eileen Carver), Марк Стегер (Charles Barlow / Judas), Брэд Грюнберг (Building Manager), Алекс Райан (CPS Interviewer, озвучка), Сюзанн Блок (Ellie Ford), Трент Хаага (Pink Room Receptionist)
Описание:
Спустя всего лишь пару недель после того, как Энни Барлоу уничтожила заразу по имени Убийца Иуда, мы знакомимся с Джун, женщиной из Лос-Анджелеса, чья спокойная жизнь превращается в настоящий кошмар. Агент ФБР Кевин Дики, расследующий дело, связанное с историей Убийцы Иуды, появляется на пороге жилища Джун, чтобы принести с собой ужасные новости - по-соседству появился маньяк-имитатор, последователь Иуды! А когда Дики показывает Джун фотографию одной из жертвы имитатора, та узнает в ней женщину, чье жестокое убийство видела в своих ночных видениях. Призраки мучат Джун, проявления потустороннего с каждым разом становятся все более ужасными, как и комшары девушки - в них она уже не просто видит убийства, но сама становится убийцей.
Рейтинг
kinopoisk.ru: 3.500 (28)
imdb.com: 5.10 (85)
Качество: WEB-DL 720p
Формат: MKV
Видео кодек: AVC
Аудио кодек:AC3
Видео: AVC, 1280x720 (16:9), 3874 kbps, 23,976 fps, 0,175 bpp
Аудио №1: русский / AC3 / 2.0 / 48 kHz / 128 kbps / 16 bit ||
Аудио №2: английский / AC3 / 5.1 / 48 kHz / 384 kbps / 16 bit

Общее
Полное имя : Y:\Раздачи для PiraToV\The.Pact.2.2014.L1.WEB-DL.720p.mkv
Формат : Matroska
Версия формата : Version 4 / Version 2
Размер файла : 3,00 Гбайт
Продолжительность : 1 ч. 35 м.
Общий поток : 4475 Кбит/сек
Дата кодирования : UTC 2014-09-09 17:15:38
Программа кодирования : mkvmerge v6.1.0 ('Old Devil') built on Mar 4 2013 09:10:42
Библиотека кодирования : libebml v1.3.0 + libmatroska v1.4.0
DURATION : 01:35:50.443000000
NUMBER_OF_FRAMES : 1241
NUMBER_OF_BYTES : 41291
_STATISTICS_WRITING_APP : mkvmerge v7.0.0 ('Where We Going') 64bit built on Jun 9 2014 15:16:27
_STATISTICS_WRITING_DATE_UTC : 2014-09-05 14:38:44
_STATISTICS_TAGS : BPS DURATION NUMBER_OF_FRAMES NUMBER_OF_BYTES

Видео
Идентификатор : 1
Формат : AVC
Формат/Информация : Advanced Video Codec
Профиль формата : High@L3.1
Параметр CABAC формата : Нет
Параметр ReFrames формата : 2 кадра
Идентификатор кодека : V_MPEG4/ISO/AVC
Продолжительность : 1 ч. 35 м.
Битрейт : 3874 Кбит/сек
Ширина : 1280 пикселей
Высота : 720 пикселей
Соотношение сторон : 16:9
Режим частоты кадров : Постоянный
Частота кадров : 23,976 кадра/сек
Цветовое пространство : YUV
Субдискретизация насыщенности : 4:2:0
Битовая глубина : 8 бит
Тип развёртки : Прогрессивная
Бит/(Пиксели*Кадры) : 0.175
Размер потока : 2,60 Гбайт (87%)
Язык : English
Default : Да
Forced : Нет
Основные цвета : BT.709
Характеристики трансфера : BT.709
Коэффициенты матрицы : BT.709

Аудио #1
Идентификатор : 2
Формат : AC-3
Формат/Информация : Audio Coding 3
Расширение режима : CM (complete main)
Параметр Endianness формата : Big
Идентификатор кодека : A_AC3
Продолжительность : 1 ч. 35 м.
Вид битрейта : Постоянный
Битрейт : 128 Кбит/сек
Каналы : 2 канала
Расположение каналов : Front: L R
Частота : 48,0 КГц
Битовая глубина : 16 бит
Метод сжатия : С потерями
Размер потока : 87,8 Мбайт (3%)
Язык : Russian
Default : Да
Forced : Нет

Аудио #2
Идентификатор : 3
Формат : AC-3
Формат/Информация : Audio Coding 3
Расширение режима : CM (complete main)
Параметр Endianness формата : Big
Идентификатор кодека : A_AC3
Продолжительность : 1 ч. 35 м.
Вид битрейта : Постоянный
Битрейт : 384 Кбит/сек
Каналы : 6 каналов
Расположение каналов : Front: L C R, Side: L R, LFE
Частота : 48,0 КГц
Битовая глубина : 16 бит
Метод сжатия : С потерями
Размер потока : 264 Мбайт (9%)
Язык : English
Default : Нет
Forced : Нет

Текст
Идентификатор : 4
Формат : UTF-8
Идентификатор кодека : S_TEXT/UTF8
Идентификатор кодека/Информация : UTF-8 Plain Text
Язык : English
Default : Нет
Forced : Нет

Меню
00:00:00.000 : en:1
00:10:00.000 : en:2
00:20:14.000 : en:3
00:30:10.000 : en:4
00:42:24.000 : en:5
00:53:05.000 : en:6
01:02:06.000 : en:7
01:12:48.000 : en:8
01:25:13.000 : en:9
01:31:10.000 : en:10
pb.wtf



Скачать Пакт 2 через торрент http://i63.fastpic.ru/big/2014/0911/d6/b9f4068e37f46df92905e551ea5ed6d6.jpg Скачать фильм Пакт 2 через торрент бесплантно в хорошем качестве Описание: Спустя всего лишь пару недель после того, как Энни Барлоу уничтожила заразу по имени Убийца Иуда, мы знакомимся с Джун, женщиной ... 10 10 5
Торрент: Зарегистрирован [2014-09-11 13:55] · скачан: 99 раз
Статус: T временная
Размер: 3 GB
Как cкачать? Как скачать Пакт 2 через торрент | qTorrent

% Раздел Тема Автор DL S | L
T Фильмы 2014 (Звук TS, Cam, VO, DVO) [ 698 MB ] Пакт 2 / The Pact II [2014 WEBRip Любительский [R.A.I.M.] GEKADOL Скачать
1 | 0


Последний раз редактировалось: Gofa (2014-09-11 17:56), всего редактировалось 1 раз

28-11-2019 20:33  

Отключить всю рекламу на сайте

    Дорогой пользователь! Огромная просьба, поблагодарите релизера, оцените раздачу и оставьте свои комментарий, если Вы скачали Пакт 2 через торрент бесплатно! Внесите свою лепту в развитие PiratBit!
    Комментировать посты могут только пользователи прошедшие не сложную регистрацию
    Показать сообщения:    

    Пакт 2 через торрент
    Скачать бесплатно Пакт 2
    Пакт 2 скачать торрент
    Пакт 2 смотреть онлайн
    Cкачать фильм Пакт 2 бесплатно
    Пакт 2 скачать торрент в хорошем качестве
    Пакт 2 смотреть онлайн бесплатно в хорошем качестве


    Вы не можете начинать темы
    Вы не можете отвечать на сообщения
    Вы не можете редактировать свои сообщения
    Вы не можете удалять свои сообщения
    Вы не можете голосовать в опросах
    Вы не можете прикреплять файлы к сообщениям
    Вы можете скачивать файлы