2 сезон

iTunes

MVO

1

2 сезон

iTunes

iTunes

1 сезон

RePack

30

Новинка

ВАЖНО

ИГРА 18+

pack

RePack

MK11
pack

Легкие деньги

RePack

jed

RePack

fifa19

RePack

RDR2

RePack

NEED FOR SPEED™ PAYBACK

4 сезон

9 сезон

Бесстыжие 9 сезон

Все сериалы

все сериалы на PB.wtf

RePack

FAR CRY 5

Anonymous, доброй ночи, мы не успеваем собрать деньги на оплату серверов за декабрь и январь, помогите нам пожалуйста в это трудное время. В качестве благодарности мы отключим Вам всю рекламу на сайте (укажите свой ник в строку Ваше имя)!

×
  
Magnet ссылка

Малефисента / Maleficent (Роберт Стромберг) [2014 г., фэнтези, семейный, мелодрама, приключения, WEB-DLRip, Дубляж] iTunes Russia pb.wtf

Малефисента через торрент pb.wtf

Размер: 1.02 GB | Добавлен: 6 лет 4 мес. назад | Торрент скачан:73 раза
Скачать  

11-09-2014 15:51 Малефисента Скачать торрент  

Малефисента / Maleficent

Год выпуска: 2014
Страна: США, Великобритания
Жанр: Фэнтези, семейный, мелодрама, приключения
Продолжительность: 01:37:50
Перевод: Дубляж iTunes Russia

Режиссер: Роберт Стромберг
Продюссер: Джо Рот, Сара Брэдшоу, Дон Хан
Сценарий: Линда Вулвертон, Джо Ринальди, Уинстон Хиблер
Бюджет: $180 000 000
Премьера в мире: 28 мая 2014

IMDB 7.30 (98 823)


В ролях: Анджелина Джоли, Эль Фаннинг, Шарлто Копли, Лесли Мэнвилл, Имелда Стонтон, Джуно Темпл, Сэм Райли, Брентон Туэйтс, Кеннет Крэнэм, Сара Флинд, Светлана Кузнецова, Мария Якименко, Вадим Романов, Анастасия Фомичева, Александр Койгеров

Описание: Юная волшебница Малефисента вела уединенную жизнь в зачарованном лесу, окруженная сказочными существами, но однажды все изменилось... В её мир вторглись люди, которые принесли с собой разрушение и хаос, и Малефисенте пришлось встать на защиту своих подданных, призвав на помощь могущественные тёмные силы. В пылу борьбы Малефисента наложила страшное заклятие на новорожденную дочь короля, прекрасную Аврору. Но, наблюдая за тем, как растет маленькая принцесса, Малефисента начинает сомневаться в правильности своего поступка — ведь, возможно, именно Аврора может вдохнуть новую жизнь в волшебное лесное царство.



Качество: WEB-DLRip
Формат: MP4
Видео кодек: AVC
Аудио кодек: AAC LC
Видео: AVC, 800x336 (2.35:1), 23.976 fps, 1 288 Kbps (0.200 bit/pixel)
Аудио: AAC LC, 48.0 KHz, 2 ch, 192 Kbps, VBR
x264 [info]: profile High, level 4.1
x264 [info]: frame I:1250 Avg QP:14.06 size: 56613
x264 [info]: frame P:35685 Avg QP:17.51 size: 14367
x264 [info]: frame B:103813 Avg QP:20.77 size: 3487
x264 [info]: consecutive B-frames: 2.5% 4.6% 4.8% 67.0% 6.0% 7.4% 0.6% 0.7% 0.2% 0.2% 0.3% 4.7% 1.1%
x264 [info]: ref P L0: 60.8% 12.0% 11.2% 4.8% 3.1% 2.6% 1.9% 1.2% 1.0% 1.1% 0.1% 0.0%
x264 [info]: ref B L0: 83.8% 7.4% 3.8% 1.6% 1.2% 0.9% 0.7% 0.3% 0.2%
x264 [info]: ref B L1: 94.7% 5.3%
x264 [info]: kb/s:1288.48
Format : MPEG-4
Format profile : Base Media
Codec ID : isom
File size : 1.02 GiB
Duration : 1h 37mn
Overall bit rate mode : Variable
Overall bit rate : 1 486 Kbps
Writing application : Lavf53.19.0

Video
ID : 1
Format : AVC
Format/Info : Advanced Video Codec
Format profile : High@L4.1
Format settings, CABAC : Yes
Format settings, ReFrames : 10 frames
Codec ID : avc1
Codec ID/Info : Advanced Video Coding
Duration : 1h 37mn
Source duration : 11mn 56s
Bit rate : 1 288 Kbps
Width : 800 pixels
Height : 336 pixels
Display aspect ratio : 2.40:1
Frame rate mode : Constant
Frame rate : 23.976 fps
Color space : YUV
Chroma subsampling : 4:2:0
Bit depth : 8 bits
Scan type : Progressive
Bits/(Pixel*Frame) : 0.200
Stream size : 902 MiB (87%)
Source stream size : 902 MiB (87%)
Writing library : x264 core 130 r2273 b3065e6
Encoding settings : cabac=1 / ref=10 / deblock=1:-3:-3 / analyse=0x3:0x133 / me=umh / subme=9 / psy=1 / psy_rd=1.00:0.00 / mixed_ref=1 / me_range=24 / chroma_me=1 / trellis=2 / 8x8dct=1 / cqm=0 / deadzone=21,11 / fast_pskip=1 / chroma_qp_offset=-2 / threads=3 / lookahead_threads=1 / sliced_threads=0 / nr=0 / decimate=0 / interlaced=0 / bluray_compat=0 / constrained_intra=0 / bframes=12 / b_pyramid=2 / b_adapt=2 / b_bias=0 / direct=3 / weightb=1 / open_gop=0 / weightp=2 / keyint=250 / keyint_min=23 / scenecut=40 / intra_refresh=0 / rc_lookahead=60 / rc=crf / mbtree=1 / crf=18.0 / qcomp=0.70 / qpmin=0 / qpmax=69 / qpstep=4 / vbv_maxrate=17500 / vbv_bufsize=14000 / crf_max=0.0 / nal_hrd=none / ip_ratio=1.40 / aq=1:0.60
mdhd_Duration : 5870374

Audio
ID : 2
Format : AAC
Format/Info : Advanced Audio Codec
Format profile : LC
Codec ID : 40
Duration : 1h 37mn
Bit rate mode : Variable
Bit rate : 192 Kbps
Channel(s) : 2 channels
Channel positions : Front: L R
Sampling rate : 48.0 KHz
Compression mode : Lossy
Delay relative to video : 83ms
Stream size : 134 MiB (13%)
pb.wtf



Скачать Малефисента через торрент http://i66.fastpic.ru/big/2014/0911/9c/dbaa27e38617a14a1e45aff45f96069c.png Скачать фильм Малефисента через торрент бесплантно в хорошем качестве Описание: Юная волшебница Малефисента вела уединенную жизнь в зачарованном лесу, окруженная сказочными существами, но однажды все ... 10 10 2
Торрент: Зарегистрирован [2014-09-11 15:51] · скачан: 73 раз
Статус: √ проверено
Размер: 1.02 GB
Как cкачать? Как скачать Малефисента через торрент | UTorrent

28-11-2019 20:33  

Отключить всю рекламу на сайте

    Дорогой пользователь! Огромная просьба, поблагодарите релизера, оцените раздачу и оставьте свои комментарий, если Вы скачали Малефисента через торрент бесплатно! Внесите свою лепту в развитие PiratBit!
    Комментировать посты могут только пользователи прошедшие не сложную регистрацию
    Показать сообщения:    

    Малефисента через торрент
    Скачать бесплатно Малефисента
    Малефисента скачать торрент
    Малефисента смотреть онлайн
    Cкачать фильм Малефисента бесплатно
    Малефисента скачать торрент в хорошем качестве
    Малефисента смотреть онлайн бесплатно в хорошем качестве


    Вы не можете начинать темы
    Вы не можете отвечать на сообщения
    Вы не можете редактировать свои сообщения
    Вы не можете удалять свои сообщения
    Вы не можете голосовать в опросах
    Вы не можете прикреплять файлы к сообщениям
    Вы можете скачивать файлы