>

7.4

iTunes

7.4

2 сезон

9.4

1 сезон

1

7.4

2 сезон

7.2

iTunes

6.0

MVO

13

6.1

iTunes

8.3

Пиратка

30

ULTIMATE

pack

9.9

Лицензия

ВАЖНО

ИГРА 18+

pack

7.3

RePack

MK11

7.7

RePack

jed

7.8

RePack

fifa19

8.5

RePack

RDR2

RePack

NEED FOR SPEED™ PAYBACK

1 сезон

9 сезон

Бесстыжие 9 сезон

Все сериалы

все сериалы на PB.wtf

RePack

FAR CRY 5

Anonymous, доброй ночи, мы катастрофически не успеваем собрать деньги на оплату серверов, помогите нам пожалуйста 5,10,15р., для нас важна любая помощь . В качестве благодарности мы отключим Вам всю рекламу на сайте (укажите свой ник в строку Ваше имя)!

×
  
Magnet ссылка

Чудеса / The Wonders (Ави Нешер / Avi Nesher) [2013, Израиль, комедия, детектив, DVDRip, Авторский (одноголосый)] pb.wtf

Чудеса через торрент pb.wtf

Размер: 1.57 GB | Добавлен: 7 лет 4 мес. назад | Торрент скачан:166 раз
Смотреть онлайн Чудеса | Скачать    Ребята, помогите собрать деньги на оплату серверов!!!

11-09-2014 17:22 Чудеса Скачать торрент  

Чудеса / The Wonders

Год выпуска: 2013
Страна: Израиль
Жанр: комедия, детектив
Продолжительность: 01:54:58
Перевод: Авторский (одноголосый)[Михаил Чадов]
Субтитры: Отсутствует
Режиссер: Ави Нешер / Avi Nesher
В ролях:


Ori Hizkiah (Arnav), Гаври Банай, Алон Даан, Avi Dangur, Эфрат Гош (Vax), Альберт Илуз (Bezherano), Haldas Kalderon, Йехуда Леви (Rav Knafo), Адир Миллер (Gittis), Эли Мизрахи (Mr. Aaronov), Юваль Шарф (Ella Gurski), Shaanan Street

Описание:
Веселый бездельник Арнав (от ивр. “кролик”) ведет беззаботную жизнь: подрабатывает барменом, курит марихуану и разрисовывает столицу Израиля граффити, оживающими, когда на них никто не смотрит. Однажды вечером он замечает, что из окна соседнего дома бьет странный луч света. С этого момента Арнава затягивает бешеный вихрь приключений с крутыми поворотами, мрачными тайнами и скрытыми опасностями… И все это, по утверждению создателей, основывается на неких реальных событиях.

Бюджет: $4 000 000

Качество: DVDRip
Формат: AVI
Видео кодек:XviD
Аудио кодек:AC3
Видео: XviD, 704x400 (16:9), 1558 kbps, 25 fps, 0,221 bpp
Аудио №1: AC3 / 2.0 / 48 kHz / 192 kbps / 16 bit - русский
Аудио №2: AC3 / 2.0 / 48 kHz / 192 kbps / 16 bit - иврит



General
Complete name : D:\Users\_KaisiK_\Bitcomet\КИНО\The Wonders.2013.DVDRip.VO.Chadov.avi
Format : AVI
Format/Info : Audio Video Interleave
File size : 1.57 GiB
Duration : 1h 54mn
Overall bit rate : 1 956 Kbps
Writing application : VirtualDubMod 1.5.10.2 (build 2540/release)
Writing library : VirtualDubMod build 2540/release

Video
ID : 0
Format : MPEG-4 Visual
Format profile : Advanced Simple@L5
Format settings, BVOP : 2
Format settings, QPel : No
Format settings, GMC : No warppoints
Format settings, Matrix : Default (H.263)
Muxing mode : Packed bitstream
Codec ID : XVID
Codec ID/Hint : XviD
Duration : 1h 54mn
Bit rate : 1 558 Kbps
Width : 704 pixels
Height : 400 pixels
Display aspect ratio : 16:9
Frame rate : 25.000 fps
Color space : YUV
Chroma subsampling : 4:2:0
Bit depth : 8 bits
Scan type : Progressive
Compression mode : Lossy
Bits/(Pixel*Frame) : 0.221
Stream size : 1.25 GiB (80%)
Writing library : XviD 1.2.1 (UTC 2008-12-04)

Audio #1
ID : 1
Format : AC-3
Format/Info : Audio Coding 3
Mode extension : CM (complete main)
Codec ID : 2000
Duration : 1h 54mn
Bit rate mode : Constant
Bit rate : 192 Kbps
Channel(s) : 2 channels
Channel positions : Front: L R
Sampling rate : 48.0 KHz
Bit depth : 16 bits
Compression mode : Lossy
Stream size : 158 MiB (10%)
Alignment : Split accross interleaves
Interleave, duration : 40 ms (1.00 video frame)
Interleave, preload duration : 500 ms

Audio #2
ID : 2
Format : AC-3
Format/Info : Audio Coding 3
Mode extension : CM (complete main)
Codec ID : 2000
Duration : 1h 54mn
Bit rate mode : Constant
Bit rate : 192 Kbps
Channel(s) : 2 channels
Channel positions : Front: L R
Sampling rate : 48.0 KHz
Bit depth : 16 bits
Compression mode : Lossy
Stream size : 158 MiB (10%)
Alignment : Split accross interleaves
Interleave, duration : 40 ms (1.00 video frame)
Interleave, preload duration : 500 ms



pb.wtf



Скачать Чудеса через торрент http://i4.imageban.ru/out/2014/09/11/6db8dd060f0132f478a917c135ca5457.jpg Скачать, смотреть онлайн Чудеса бесплантно в хорошем качестве Описание: Веселый бездельник Арнав (от ивр. “кролик”) ведет беззаботную жизнь: подрабатывает барменом, курит марихуану и разрисовывает ... 10 10 8
Торрент: Зарегистрирован [2014-09-11 17:23] · скачан: 166 раз
Статус: √ проверено
Размер: 1.57 GB
Как cкачать? Как скачать Чудеса через торрент | UTorrent

% Раздел Тема Автор DL S | L
Документальные фильмы 3D [ 13.11 GB ] Чудеса моря в 3D / Wonders of the Sea 3D [2017 документальный видовой BDRip 1080p] [Half OverUnder / Вертикальная анаморфная стереопара] VO [NoNamed] bober100 Скачать
1 | 0
Научно-популярные фильмы [ 31.32 GB ] Вселенная: Семь чудес Солнечной системы 3D / Universe: 7 Wonders of The Solar System 3D Blu-Ray [2010 Документальный 1080p] Anonymous Скачать
1 | 0
National Geographic [ 1.26 GB ] National Geographic: Осушить океан: Затерянные чудеса Египта / Drain the Oceans. Egypt's Lost Wonders [2018 ДокументальныйDVB ] Armstrong Скачать
1 | 0
Документальные фильмы и телепередачи [ 16.06 GB ] Чудеса Арктики / Wonders of the Arctic [2014 Документальный природа видовой музыка релакс UHD BD Remux 2160p] [IMAX Edition] bober100 Скачать
1 | 1
BBC [ 27.23 GB ] Чудеса Вселенной / Wonders of the Universe [2011 документальный BDRip 1080p] VO msltel Скачать
1 | 0
BBC [ 10.66 GB ] Чудеса Вселенной / Wonders of the Universe [2011 документальный BDRip 720p] VO msltel Скачать
1 | 0
BBC [ 6.85 GB ] Чудеса Вселенной / Wonders of the Universe [2011 документальный BDRip AVC] VO msltel Скачать
1 | 0


Последний раз редактировалось: _KaisiK_ (2014-12-10 19:18), всего редактировалось 3 раз(а)

28-11-2019 20:33  

Отключить всю рекламу на сайте

    Дорогой пользователь! Огромная просьба, поблагодарите релизера, оцените раздачу и оставьте свои комментарий, если Вы скачали Чудеса через торрент бесплатно!
    Комментировать посты могут только пользователи прошедшие не сложную регистрацию
    Показать сообщения:    

    Чудеса через торрент
    Скачать бесплатно Чудеса
    Чудеса скачать торрент
    Чудеса смотреть онлайн
    Cкачать фильм Чудеса бесплатно
    Чудеса скачать торрент в хорошем качестве
    Чудеса смотреть онлайн бесплатно в хорошем качестве


    Вы не можете начинать темы
    Вы не можете отвечать на сообщения
    Вы не можете редактировать свои сообщения
    Вы не можете удалять свои сообщения
    Вы не можете голосовать в опросах
    Вы не можете прикреплять файлы к сообщениям
    Вы можете скачивать файлы