1 сезон

3 сезон

iTunes

1

Line

MVO

iTunes

13

1 сезон

RePack

30

Deluxe

pack

Лицензия

ВАЖНО

ИГРА 18+

pack

RePack

MK11

RePack

jed

RePack

fifa19

RePack

RDR2

RePack

NEED FOR SPEED™ PAYBACK

4 сезон

9 сезон

Бесстыжие 9 сезон

Все сериалы

все сериалы на PB.wtf

RePack

FAR CRY 5

Anonymous, добрый вечер, мы катастрофически не успеваем собрать деньги на оплату серверов, помогите нам пожалуйста 5,10,15р., для нас важна любая помощь . В качестве благодарности мы отключим Вам всю рекламу на сайте (укажите свой ник в строку Ваше имя)!

×
  
Magnet ссылка

Геракл: Начало легенды / The Legend of Hercules (Ренни Харлин / Renny Harlin) [2014, боевик, фэнтези, DVD9] R5 pb.wtf

Геракл: Начало легенды через торрент pb.wtf

Размер: 4.64 GB | Добавлен: 6 лет 10 мес. назад | Торрент скачан:66 раз
Скачать  

11-09-2014 17:55 Геракл: Начало легенды Скачать торрент  


Геракл: Начало легенды / The Legend of Hercules
«Every man has a destiny»
Страна: США, Болгария
Студия: Millennium Films
Жанр: боевик, фэнтези
Год выпуска: 2014
Мировая премьера: 8 января 2014
Российская премьера: 23 января 2014, 3D
Дата выхода DVD: 9 сентября 2014
Дата выхода Blu-Ray: 9 сентября 2014
Продолжительность: 01:34:36
Перевод: Профессиональный (дублированный) [Лицензия]
Cубтитры: нет
Оригинальная аудиодорожка: нет
Режиссер: Ренни Харлин / Renny Harlin
В ролях: Келлан Латс, Скотт Эдкинс, Лиам МакИнтайр, Гайя Уайсс, Лайам Гэрриган, Роксанна МакКи, Раде Шербеджия, Джонатон Шек, Люк Ньюберри, Кеннет Крэнэм
Описание: 1200 г. до н. э. Древняя Греция. Прекрасная царица Алкмена попала под чары грозного бога Олимпа — Зевса и родила ему сына Геракла. При рождении ему было предсказано стать величайшим воином, который будет властвовать над народами и принесет мир и процветание своей стране. Но пока Геракл ничего не знает о своем предназначении. Он вырос прекрасным и сильным юношей. Он мечтает о любви принцессы Крита, Гебы, которая обещана в жены его брату. Когда Геракл узнает о своей великой миссии, он должен выбрать: сбежать со своей любовью или исполнить свое предназначение.
Бонусы: нет

Релиз группы:
Качество: DVD9 R5
Формат: DVD-Video
Видео кодек: MPEG2
Аудио кодек: AC3
Видео: PAL 16:9 (720x576(0.564)) MPEG Video, 25,000 кадр/сек, 5852 Кбит/сек
Аудио: Russian (Dolby AC3, 6 ch) 448 Кбит/сек, 48,0 КГц



Title: Gerakl.Nachalo.legendy.2014.DVD9
Size: 4.64 Gb ( 4 868 130,00 KBytes ) - DVD-9
Enabled regions: 1, 2, 3, 4, 5, 6, 7, 8

VTS_01 :
Play Length: 00:00:25+{00:00:25}+{00:00:25}
Video: PAL 4:3 (720x576) VBR
Audio:
Russian (Dolby AC3, 6 ch)
English (Dolby AC3, 6 ch)
English (Dolby AC3, 6 ch)

VTS_02 :
Play Length: 01:34:36
Video: PAL 16:9 (720x576) VBR, Auto Pan&Scan, Auto Letterboxed
Audio:
Russian (Dolby AC3, 6 ch)

* Menus Information *

VIDEO_TS Menu
Video:
PAL 16:9 (720x576) VBR
Auto Pan&Scan, Auto Letterboxed
English Language Unit :
Title Menu

VTS_01 Menu
Video:
PAL 16:9 (720x576) VBR
Auto Letterboxed
Audio:
Not specified (Dolby AC3, 2 ch)
English Language Unit :
Root Menu
Chapter (PTT) Menu

VTS_02 Menu
Video:
PAL 4:3 (720x576) VBR
English Language Unit :
Root Menu
Chapter (PTT) Menu
Общее
Полное имя : F:\Новинки 2014\Gerakl.Nachalo.legendy.2014.DVD9\VIDEO_TS\VTS_02_1.VOB
Формат : MPEG-PS
Размер файла : 1024 Мбайт
Продолжительность : 22 м.
Режим общего битрейта : Переменный
Общий поток : 6428 Кбит/сек

Видео
Идентификатор : 224 (0xE0)
Формат : MPEG Video
Версия формата : Version 2
Профиль формата : Main@Main
Параметр BVOP формата : Да
Параметр матрицы формата : Выборочная
Параметр GOP формата : Variable
Продолжительность : 22 м.
Вид битрейта : Переменный
Битрейт : 5852 Кбит/сек
Максимальный битрейт : 8000 Кбит/сек
Ширина : 720 пикселей
Высота : 576 пикселей
Соотношение сторон : 16:9
Частота кадров : 25,000 кадров/сек
Стандарт вещания : PAL
Цветовое пространство : YUV
Субдискретизация насыщенности : 4:2:0
Битовая глубина : 8 бит
Тип развёртки : Прогрессивная
Метод сжатия : С потерями
Бит/(Пиксели*Кадры) : 0.564
Временной код первого кадра : 00:00:00:00
Оригинал временного кода : Group of pictures header
Размер потока : 932 Мбайт (91%)

Аудио
Идентификатор : 189 (0xBD)-128 (0x80)
Формат : AC-3
Формат/Информация : Audio Coding 3
Расширение режима : CM (complete main)
Параметр Endianness формата : Big
Режим смешивания : DVD-Video
Продолжительность : 22 м.
Вид битрейта : Постоянный
Битрейт : 448 Кбит/сек
Каналы : 6 каналов
Расположение каналов : Front: L C R, Side: L R, LFE
Частота : 48,0 КГц
Битовая глубина : 16 бит
Метод сжатия : С потерями
Размер потока : 71,4 Мбайт (7%)










pb.wtf



Скачать Геракл: Начало легенды через торрент http://i64.fastpic.ru/big/2014/0911/fd/2749ef191eb5288071f392902ad48bfd.png Скачать фильм Геракл: Начало легенды через торрент бесплантно в хорошем качестве Описание: 1200 г. до н. э. Древняя Греция. Прекрасная царица Алкмена попала под чары грозного бога Олимпа — Зевса и родила ему сына ... 7.8 10 8
Info! Золотая раздача, скачанное не засчитывается.
Торрент: Зарегистрирован [2014-09-11 17:55] · скачан: 66 раз
Статус: √ проверено
Размер: 4.64 GB
Как cкачать? Как скачать Геракл: Начало легенды через торрент | UTorrent

% Раздел Тема Автор DL S | L
Фильмы 2014 [DVDrip, WEB-DLRip, HDrip] [ 2.18 GB ] Геракл: Начало легенды / The Legend of Hercules [2014 Болгария HDRip-AVC] - [] От R.G. PiratFilms White Smoke Скачать
1 | 0
Фильмы [HD 720p, 1080p] (Хороший звук DUB, MVO) [ 9.24 GB ] Геракл: Начало легенды / The Legend of Hercules [2014 BDRip 1080p DUB ] от R.G. HD-Films Seedtank Скачать
1 | 0

28-11-2019 20:33  

Отключить всю рекламу на сайте

11-09-2014 18:56 Геракл: Начало легенды Скачать торрент  

Ужасное кино... :jest3:pb.wtf



11-09-2014 20:27 Геракл: Начало легенды Скачать торрент  

УГ !!!! nopb.wtf



    Дорогой пользователь! Огромная просьба, поблагодарите релизера, оцените раздачу и оставьте свои комментарий, если Вы скачали Геракл: Начало легенды через торрент бесплатно! Внесите свою лепту в развитие PiratBit!
    Комментировать посты могут только пользователи прошедшие не сложную регистрацию
    Показать сообщения:    

    Геракл: Начало легенды через торрент
    Скачать бесплатно Геракл: Начало легенды
    Геракл: Начало легенды скачать торрент
    Геракл: Начало легенды смотреть онлайн
    Cкачать фильм Геракл: Начало легенды бесплатно
    Геракл: Начало легенды скачать торрент в хорошем качестве
    Геракл: Начало легенды смотреть онлайн бесплатно в хорошем качестве


    Вы не можете начинать темы
    Вы не можете отвечать на сообщения
    Вы не можете редактировать свои сообщения
    Вы не можете удалять свои сообщения
    Вы не можете голосовать в опросах
    Вы не можете прикреплять файлы к сообщениям
    Вы можете скачивать файлы