1 сезон

3 сезон

iTunes

1

Line

MVO

iTunes

13

1 сезон

RePack

30

Deluxe

pack

Лицензия

ВАЖНО

ИГРА 18+

pack

RePack

MK11

RePack

jed

RePack

fifa19

RePack

RDR2

RePack

NEED FOR SPEED™ PAYBACK

4 сезон

9 сезон

Бесстыжие 9 сезон

Все сериалы

все сериалы на PB.wtf

RePack

FAR CRY 5

Anonymous, доброй ночи, мы катастрофически не успеваем собрать деньги на оплату серверов, помогите нам пожалуйста 5,10,15р., для нас важна любая помощь . В качестве благодарности мы отключим Вам всю рекламу на сайте (укажите свой ник в строку Ваше имя)!

×
  
Magnet ссылка

Прогулка по солнечному свету / Walking on Sunshine (Макс Джива, Дания Пасквини / Max Giwa, Dania Pasquini) [2014, мюзикл, мелодрама, DVD5] R5 pb.wtf

Прогулка по солнечному свету через торрент pb.wtf

Размер: 4.3 GB | Добавлен: 6 лет 10 мес. назад | Торрент скачан:30 раз
Скачать  

11-09-2014 20:16 Прогулка по солнечному свету Скачать торрент  


Прогулка по солнечному свету / Walking on Sunshine
Страна: Великобритания
Студия: IM Global, Vertigo Films
Жанр: мюзикл, мелодрама
Год выпуска: 2014
Мировая премьера: 19 июня 2014
Российская премьера: 3 июля 2014
Дата выхода DVD: 16 сентября 2014
Продолжительность: 01:33:09
Перевод: Профессиональный (дублированный) [Лицензия]
Cубтитры: нет
Оригинальная аудиодорожка: нет
Режиссер: Макс Джива, Дания Пасквини / Max Giwa, Dania Pasquini
В ролях: Ханна Артертон, Джулио Мария Беррути, Анабель Шолей, Грег Уайз, Леона Льюис, Кэти Брэнд, Дэнни Киррейн, Люк Хоуп, Mariola Jaworska, Шэйн Сэлтер
Описание: После красивого, бурного и стремительного романа Мэдди и Раф принимают решение пожениться. Мэдди счастлива. Она готовится к церемонии, приглашает гостей, среди которых — ее любимая сестра Тэйлор. Кто мог предположить, что между Рафом и Тэйлор была когда-то страстная любовь, которая, как оказалось, вовсе не угасла…
Бонусы: Скоро на DVD

Релиз группы:
Качество: DVD5 R5
Формат: DVD-Video
Видео кодек: MPEG2
Аудио кодек: AC3
Видео: PAL 16:9 (720x576(0.657)) MPEG Video, 25,000 кадр/сек, 6817 Кбит/сек
Аудио: Russian (Dolby AC3, 6 ch) 384 Кбит/сек, 48,0 КГц



Title: Progulka.po.solnechnomu.svetu.2014.DVD5
Size: 4.30 Gb ( 4 509 852,00 KBytes ) - DVD-5
Enabled regions: 1, 2, 3, 4, 5, 6, 7, 8

VTS_01 :
Play Length: 01:33:09
Video: PAL 16:9 (720x576) VBR, Auto Letterboxed
Audio:
Russian (Dolby AC3, 6 ch)

VTS_02 :
Play Length: 00:06:45
Video: PAL 16:9 (720x576) VBR, Auto Letterboxed
Audio:
Not specified (Dolby AC3, 2 ch)

* Menus Information *

VIDEO_TS Menu
Video:
PAL 16:9 (720x576) VBR
Auto Pan&Scan
Audio:
Not specified (Dolby AC3, 2 ch)
Russian Language Unit :
Title Menu

VTS_01 Menu
Video:
PAL 16:9 (720x576) VBR
Auto Pan&Scan
Audio:
Not specified (Dolby AC3, 2 ch)
Russian Language Unit :
Root Menu
Chapter (PTT) Menu

VTS_02 Menu
Video:
NTSC 4:3 (720x480) VBR
Auto Pan&Scan, Auto Letterboxed
Russian Language Unit :
Root Menu
Общее
Полное имя : F:\Новинки 2014\Progulka.po.solnechnomu.svetu.2014.DVD5\VIDEO_TS\VTS_01_1.VOB
Формат : MPEG-PS
Размер файла : 1024 Мбайт
Продолжительность : 19 м.
Режим общего битрейта : Переменный
Общий поток : 7347 Кбит/сек
Библиотека кодирования : (c) 1998-2007 Womble Multimedia, Inc. / MPEG Video Wizard (04/2007) / Mar 29 2007

Видео
Идентификатор : 224 (0xE0)
Формат : MPEG Video
Версия формата : Version 2
Профиль формата : Main@Main
Параметр BVOP формата : Да
Параметр матрицы формата : Выборочная
Параметр GOP формата : M=3, N=12
Продолжительность : 19 м.
Вид битрейта : Переменный
Битрейт : 6817 Кбит/сек
Максимальный битрейт : 9000 Кбит/сек
Ширина : 720 пикселей
Высота : 576 пикселей
Соотношение сторон : 16:9
Частота кадров : 25,000 кадров/сек
Стандарт вещания : PAL
Цветовое пространство : YUV
Субдискретизация насыщенности : 4:2:0
Битовая глубина : 8 бит
Тип развёртки : Прогрессивная
Порядок развёртки : Верхнее поле первое
Метод сжатия : С потерями
Бит/(Пиксели*Кадры) : 0.657
Временной код первого кадра : 00:00:00:00
Оригинал временного кода : Group of pictures header
Размер потока : 950 Мбайт (93%)
Библиотека кодирования : (c) 1998-2007 Womble Multimedia, Inc. / MPEG Video Wizard (04/2007) / Mar 29 2007

Аудио
Идентификатор : 189 (0xBD)-128 (0x80)
Формат : AC-3
Формат/Информация : Audio Coding 3
Расширение режима : CM (complete main)
Параметр Endianness формата : Big
Режим смешивания : DVD-Video
Продолжительность : 19 м.
Вид битрейта : Постоянный
Битрейт : 384 Кбит/сек
Каналы : 6 каналов
Расположение каналов : Front: L C R, Side: L R, LFE
Частота : 48,0 КГц
Битовая глубина : 16 бит
Метод сжатия : С потерями
Размер потока : 53,5 Мбайт (5%)










pb.wtf



Скачать Прогулка по солнечному свету через торрент http://i68.fastpic.ru/big/2014/0911/84/53744d8ae596ca4042d2b818e8732e84.jpg Скачать фильм Прогулка по солнечному свету через торрент бесплантно в хорошем качестве Описание: После красивого, бурного и стремительного романа Мэдди и Раф принимают решение пожениться. Мэдди счастлива. Она готовится к ... 10 10 1
Info! Золотая раздача, скачанное не засчитывается.
Торрент: Зарегистрирован [2014-09-11 20:16] · скачан: 30 раз
Статус: √ проверено
Размер: 4.3 GB
Как cкачать? Как скачать Прогулка по солнечному свету через торрент | UTorrent

28-11-2019 20:33  

Отключить всю рекламу на сайте

    Дорогой пользователь! Огромная просьба, поблагодарите релизера, оцените раздачу и оставьте свои комментарий, если Вы скачали Прогулка по солнечному свету через торрент бесплатно! Внесите свою лепту в развитие PiratBit!
    Комментировать посты могут только пользователи прошедшие не сложную регистрацию
    Показать сообщения:    

    Прогулка по солнечному свету через торрент
    Скачать бесплатно Прогулка по солнечному свету
    Прогулка по солнечному свету скачать торрент
    Прогулка по солнечному свету смотреть онлайн
    Cкачать фильм Прогулка по солнечному свету бесплатно
    Прогулка по солнечному свету скачать торрент в хорошем качестве
    Прогулка по солнечному свету смотреть онлайн бесплатно в хорошем качестве


    Вы не можете начинать темы
    Вы не можете отвечать на сообщения
    Вы не можете редактировать свои сообщения
    Вы не можете удалять свои сообщения
    Вы не можете голосовать в опросах
    Вы не можете прикреплять файлы к сообщениям
    Вы можете скачивать файлы